<?xml version="1.0" standalone="no"?>
<!DOCTYPE svg PUBLIC "-//W3C//DTD SVG 1.1//EN" "http://www.w3.org/Graphics/SVG/1.1/DTD/svg11.dtd" >
<svg>
<metadata>
Created by FontForge 20090622 at Fri Sep 16 16:25:55 2016
 By deploy user
 The digitally encoded machine readable software for producing the  Typefaces licensed to you is copyrighted (c) 1988, 1990 Adobe Systems.  All Rights Reserved. This software is the property of Adobe Systems  Incorporated and its licensors, and may not be reproduced, used,  displayed, modified, disclosed, or transferred  without the express  written approval of Adobe.   The digitally encoded machine readable outline data for producing  the Typefaces licensed to you is copyrighted (c) 1981 Linotype AG  and/or its subsidiaries. All Rights Reserved.  This data is the property of Linotype AG and/or its subsidiaries  and may not be reproduced, used, displayed, modified, disclosed or  transferred without the express written approval of Linotype AG  and/or its subsidiaries. 
</metadata>
<defs>
<font id="GaramondThree-BoldSC" horiz-adv-x="500" >
  <font-face 
    font-family="Garamond 3 BoldSC"
    font-weight="700"
    font-stretch="normal"
    units-per-em="1000"
    panose-1="0 0 0 0 0 0 0 0 0 0"
    ascent="800"
    descent="-200"
    x-height="446"
    cap-height="612"
    bbox="-167 -220 989 855"
    underline-thickness="50"
    underline-position="-50"
    unicode-range="U+000D-U+FB02"
  />
<missing-glyph horiz-adv-x="250" 
 />
    <glyph glyph-name=".notdef" horiz-adv-x="250" 
 />
    <glyph glyph-name=".null" horiz-adv-x="0" 
 />
    <glyph glyph-name=".null" horiz-adv-x="0" 
 />
    <glyph glyph-name="nonmarkingreturn" unicode="&#xd;" horiz-adv-x="250" 
 />
    <glyph glyph-name="space" unicode=" " horiz-adv-x="250" 
 />
    <glyph glyph-name="exclam" unicode="!" horiz-adv-x="278" 
d="M139 626q22 0 39.5 -16.5t17.5 -58.5q0 -25 -5 -58t-12 -73t-13.5 -85t-8.5 -95q-2 -30 -4.5 -41t-13.5 -11t-13.5 11t-4.5 41q-2 50 -8.5 95t-13 85l-12 73t-5.5 58q0 42 17.5 58.5t39.5 16.5zM138 112q25 0 44.5 -19t19.5 -44q0 -24 -20 -41.5t-44 -17.5t-43 17.5
t-19 41.5q0 25 18.5 44t43.5 19z" />
    <glyph glyph-name="quotedbl" unicode="&#x22;" horiz-adv-x="333" 
d="M255 341l-3 -18.5t-14 -12.5t-14 12.5l-3 18.5l-17 204q-1 5 -1 11v14q1 30 10 43t25 13t25 -13t10 -43v-14t-1 -11zM112 341l-3 -18.5t-14 -12.5t-14 12.5l-3 18.5l-17 204q-1 5 -1 11v14q1 30 10 43t25 13t25 -13t10 -43v-14t-1 -11z" />
    <glyph glyph-name="numbersign" unicode="#" 
d="M427 190h-91l-26 -190h-48l27 190h-115l-27 -190h-47l27 190h-92l3 42h95l18 130h-91l2 42h95l26 190h48l-28 -190h116l26 190h48l-27 -190h89l-3 -42h-92l-18 -130h88zM198 362l-18 -130h115l18 130h-115z" />
    <glyph glyph-name="dollar" unicode="$" 
d="M224 673q1 12 3 14.5t7 2.5t8 -5t2 -12l-5 -66q-1 -13 1.5 -16t14.5 -3h39q6 0 8.5 1.5t3.5 12.5l5 77q1 7 4.5 9t7.5 2q10 0 8 -13l-6 -81q-1 -8 2 -10t12 -4q69 -11 72 -34q3 -29 4 -42t1 -28v-14t-1 -17.5t-2 -14.5t-3 -6q-11 0 -14.5 3t-5.5 14q-5 38 -19.5 62.5
t-50.5 40.5l-14 -200q17 -10 40.5 -21.5t45 -31t36.5 -49.5t15 -76q0 -40 -18.5 -70t-43 -50.5t-50.5 -31t-41 -10.5q-8 0 -8.5 -4.5t-1.5 -12.5l-7 -88q-1 -8 -3.5 -9.5t-8.5 -1.5q-9 0 -8 19l7 91q-22 1 -32 1.5t-15.5 1t-10 1.5t-14.5 2l-10 -107q-1 -9 -11 -9
q-5 0 -7 2.5t-1 11.5l9 104q-19 3 -36.5 9t-34.5 14q-4 2 -11.5 5t-15 8t-13.5 12t-6 17q-1 19 -0.5 41.5t2.5 42t6.5 32.5t11.5 13q9 0 11 -10.5t3.5 -27.5t6 -38t19.5 -42q14 -20 31 -28.5t22 -8.5q7 0 7 8l19 226l-36 17.5t-40.5 27.5t-33.5 42.5t-14 62.5q0 31 11 56
t28 43.5t38.5 30t42.5 16.5q20 5 25.5 7t5.5 6zM286 352l14 193q1 6 -8.5 10.5t-32.5 4.5q-15 0 -20 -1.5t-6 -6.5l-12 -151q-2 -15 0 -20t13 -10zM212 540q2 16 -7 16q-7 0 -19 -5.5t-23 -15t-19 -23.5t-8 -31q0 -38 16 -58t42 -34q3 -2 4 2.5t3 21.5zM285 55
q-2 -14 12 -14q6 0 18 5.5t24 17t21.5 29.5t9.5 44q0 21 -7.5 38t-19 29t-24 18.5t-22.5 7.5zM278 241l-46 21q-12 5 -17.5 5t-6.5 -9l-18 -217q0 -3 15 -6t23 -3q14 0 24.5 1t10.5 6z" />
    <glyph glyph-name="percent" unicode="%" horiz-adv-x="833" 
d="M567 -14q-35 0 -57.5 11.5t-36 29.5t-18.5 38.5t-5 38.5q0 52 22.5 94.5t56.5 73t75 47.5t77 17q16 0 33.5 -4.5t32 -16t24 -30.5t9.5 -49q0 -36 -14.5 -79.5t-42 -81.5t-67 -63.5t-89.5 -25.5zM580 8q36 0 68.5 21t56.5 54.5t38.5 75t14.5 81.5q0 36 -19 53t-45 17
q-24 0 -55 -20.5t-58.5 -53.5t-47 -74.5t-19.5 -83.5q0 -24 7.5 -37.5t18 -21t21.5 -9.5t19 -2zM182 -48h-50l439 559l-2 2q-5 -3 -16 -8.5t-27 -11t-36.5 -9.5t-43.5 -4q-28 0 -42 3l-24 5q-3 -41 -19.5 -84t-43.5 -78.5t-65 -58.5t-85 -23q-54 0 -86.5 34t-32.5 85
q0 53 25 96t60 73t74 46t67 16q38 0 59 -12.5t31.5 -27.5t13 -27.5l2.5 -12.5q12 -4 27 -8t31 -4q56 0 97 20t69 44t44 44t20 20h46zM112 331q0 -26 17 -45.5t52 -19.5q26 0 56 16.5t56 47t44.5 74t20.5 96.5q-27 11 -46.5 29.5t-27.5 38.5q-36 -1 -67 -28t-54.5 -64
t-37 -77t-13.5 -68z" />
    <glyph glyph-name="ampersand" unicode="&#x26;" horiz-adv-x="722" 
d="M230 469q0 -26 17.5 -53.5t40.5 -47.5q4 -4 7.5 -8.5t8.5 -4.5q9 0 20 6.5t21.5 18.5t17.5 28.5t7 36.5q0 30 -9.5 46t-22.5 24t-26 9.5t-19 1.5q-27 0 -45 -17t-18 -40zM527 0q-24 0 -40.5 -1t-33.5 -1q-14 0 -17.5 1t-3.5 4q0 7 4 10.5t8.5 6t8.5 5.5t4 9
q0 5 -4.5 12.5t-11 15.5t-14 13.5t-14.5 5.5q-9 0 -23.5 -15.5t-39.5 -34t-61.5 -34t-89.5 -15.5q-45 0 -76 12.5t-50.5 32.5t-28 45.5t-8.5 52.5q0 54 24 87t53.5 52t53.5 28.5t24 17.5q0 4 -8 11.5t-17.5 21.5t-17.5 35t-8 51q0 28 13 50.5t35 38.5t52 25t63 9
q43 0 70 -12.5t42 -30t20 -36t5 -30.5q0 -33 -17 -51t-38 -29t-38 -17.5t-17 -17.5q0 -5 9 -14l113 -119q4 -3 7 -5.5t5 -2.5q4 0 8 4t7 8l60 74q8 8 13.5 18t5.5 22t-14 17q-9 3 -18 4t-16.5 2.5t-12 4.5t-4.5 9q0 8 2.5 10t13.5 2q18 0 41 0.5t44 1.5t37 1.5t20 0.5
q2 0 8 -0.5t12 -1.5t10.5 -3t4.5 -5q0 -7 -7.5 -10.5t-17 -5.5l-18.5 -4t-13 -6l-62 -67q-16 -16 -30 -32.5l-24.5 -30t-17 -23.5t-6.5 -15q0 -4 8.5 -14t22 -23l30.5 -28.5l33 -30.5q20 -19 39.5 -28.5t34.5 -14l24 -7t9 -9.5t-13.5 -9t-24.5 -2q-16 0 -31.5 2t-28.5 2h-66
zM212 287q-36 -17 -54 -42t-18 -73q0 -62 33.5 -94t83.5 -32q21 0 43.5 7.5t40.5 17t30.5 19.5t13.5 15q2 5 -2 8z" />
    <glyph glyph-name="quotesingle" unicode="'" horiz-adv-x="222" 
d="M128 341l-3 -18.5t-14 -12.5t-14 12.5l-3 18.5l-17 204q-1 5 -1 11v14q1 30 10 43t25 13t25 -13t10 -43v-14t-1 -11z" />
    <glyph glyph-name="parenleft" unicode="(" horiz-adv-x="278" 
d="M30 253q0 56 13 102t30.5 81t34.5 57.5l24 31.5q42 51 70.5 76t32.5 25t9 -3t5 -8q0 -4 -21 -29.5t-45.5 -72t-45.5 -114t-21 -154.5q0 -40 3.5 -72.5t11 -61.5t19 -56.5t27.5 -59.5q29 -56 51.5 -82.5t22.5 -31.5q0 -3 -3.5 -7t-7.5 -4t-34 26.5t-72 77.5
q-21 26 -40 54.5t-33.5 62.5t-22.5 74t-8 88z" />
    <glyph glyph-name="parenright" unicode=")" horiz-adv-x="278" 
d="M248 253q0 -48 -8 -88t-22.5 -74t-33.5 -62.5t-40 -54.5q-42 -51 -72 -77.5t-34 -26.5t-7.5 4t-3.5 7q0 5 22.5 31.5t51.5 82.5q16 32 27.5 59.5t19 56.5t11 61.5t3.5 72.5q0 87 -21 154.5t-45.5 114t-45.5 72t-21 29.5q0 5 5 8t9 3t32.5 -25t70.5 -76q8 -9 24.5 -31.5
t34 -57.5t30.5 -81t13 -102z" />
    <glyph glyph-name="asterisk" unicode="*" 
d="M431 463q0 -20 -9 -28.5t-20 -8.5q-8 0 -25 3.5t-36.5 8l-39 9t-34.5 6.5q9 -14 24.5 -29.5l30.5 -31t26.5 -30.5t11.5 -28q0 -16 -11 -25t-29 -9q-12 0 -20.5 13t-16 34t-15.5 46.5t-17 50.5h-2q-9 -25 -17 -50.5t-15.5 -46.5t-16 -34t-20.5 -13q-18 0 -29 9t-11 25
q0 13 11.5 28t26.5 30.5l30.5 31t24.5 29.5q-15 -2 -34.5 -6.5l-39 -9t-36.5 -8t-25 -3.5q-11 0 -20 8.5t-9 28.5q0 14 9.5 23.5t26.5 9.5q9 0 26.5 -3.5l36.5 -7.5l37 -8t30 -6q-15 21 -31 38l-29 32t-21.5 28t-8.5 25q0 7 9.5 19.5t29.5 12.5q26 0 37 -39t28 -108h2
q17 69 28.5 108t36.5 39q20 0 29.5 -12.5t9.5 -19.5q0 -12 -8.5 -25t-21.5 -28l-29 -32t-31 -38q12 2 30 6l37 8l36.5 7.5t26.5 3.5q17 0 26.5 -9.5t9.5 -23.5z" />
    <glyph glyph-name="plus" unicode="+" horiz-adv-x="600" 
d="M272 382h56v-163h163v-56h-163v-163h-56v163h-163v56h163v163z" />
    <glyph glyph-name="comma" unicode="," horiz-adv-x="250" 
d="M122 112q20 0 36.5 -8.5t28 -23.5t18 -34.5t6.5 -40.5q0 -39 -20 -69t-45 -50t-47.5 -30t-27.5 -10q-8 0 -10.5 1.5t-2.5 9.5q0 3 14 11.5t31.5 22.5t31.5 33t14 45q0 9 -4 20t-16 11q-8 0 -15 -1t-12 -1q-25 0 -35.5 14.5t-10.5 39.5q0 28 18.5 44t47.5 16z" />
    <glyph glyph-name="hyphen" unicode="-" horiz-adv-x="333" 
d="M288 151h-243v80h243v-80z" />
    <glyph glyph-name="period" unicode="." horiz-adv-x="250" 
d="M124 112q25 0 44.5 -19t19.5 -44q0 -24 -20 -41.5t-44 -17.5t-43 17.5t-19 41.5q0 25 18.5 44t43.5 19z" />
    <glyph glyph-name="slash" unicode="/" horiz-adv-x="278" 
d="M71 -18h-57l193 644h57z" />
    <glyph glyph-name="zero" unicode="0" 
d="M22 201q0 44 16.5 83.5t46.5 69t71.5 47t92.5 17.5t92.5 -17.5t71.5 -47t46.5 -69t16.5 -83.5t-16.5 -83.5t-46.5 -69t-71.5 -47t-92.5 -17.5t-92.5 17.5t-71.5 47t-46.5 69t-16.5 83.5zM128 201q0 -50 10.5 -86t28 -59.5t39 -34.5t43.5 -11t43.5 11t39 34.5t28 59.5
t10.5 86t-10.5 86t-28 59.5t-39 34.5t-43.5 11t-43.5 -11t-39 -34.5t-28 -59.5t-10.5 -86z" />
    <glyph glyph-name="one" unicode="1" 
d="M206 324q0 32 -14 41t-46 12q-38 3 -38 18q0 8 6 9.5t15 1.5q20 0 49 -2t70 -2q38 0 69.5 2t57.5 2q21 0 21 -13q0 -8 -11 -9.5t-39 -3.5q-31 -3 -41.5 -12t-10.5 -44v-260q0 -21 11.5 -26.5t38.5 -8.5q32 -3 42 -7t10 -12q0 -14 -24 -14q-23 0 -50 2t-69 2
q-31 0 -61.5 -2t-61.5 -2q-22 0 -22 15q0 8 10.5 10.5t38.5 4.5q19 2 34 8.5t15 29.5v260z" />
    <glyph glyph-name="two" unicode="2" 
d="M204 95q-12 -9 -12 -15q0 -4 5.5 -5t22.5 -1q48 0 93 4t95 4q13 0 18.5 -5t5.5 -31q0 -50 -38 -50q-12 0 -26 0.5t-32.5 1.5t-43.5 1.5t-60 0.5q-42 0 -71.5 -0.5t-50 -1.5t-32.5 -1.5t-20 -0.5q-20 0 -20 13q0 9 21 24l145 97q53 35 80.5 73.5t27.5 76.5q0 39 -25 63.5
t-67 24.5q-37 0 -61 -14t-39.5 -31t-25 -31t-17.5 -14q-13 0 -13 14q0 11 11 32t34.5 42t59 36.5t83.5 15.5q71 0 115.5 -31.5t44.5 -91.5q0 -35 -23.5 -65.5t-66.5 -58.5z" />
    <glyph glyph-name="three" unicode="3" 
d="M368 324q0 -24 -10 -43t-25.5 -34.5t-35 -28.5t-39.5 -24v-2q77 -4 123.5 -42.5t46.5 -120.5q0 -56 -24 -101t-63 -77t-87.5 -49.5t-96.5 -17.5q-54 0 -74.5 14t-20.5 35q0 19 11 29t26 10q13 0 25.5 -8t25.5 -18t27.5 -18t30.5 -8q21 0 44.5 13.5t43 37t32 54.5t12.5 66
q0 27 -10 50.5t-27 40.5t-39.5 26.5t-48.5 9.5q-35 0 -54.5 -5t-30 -11t-16 -11t-11.5 -5q-13 0 -13 12q0 10 14 21t34.5 24l44.5 28.5t44.5 34t34.5 41t14 49.5q0 42 -22 62t-52 20q-27 0 -44 -9t-28 -20t-18 -20t-14 -9q-12 0 -12 11q0 10 11.5 25t32.5 28.5t49.5 23.5
t62.5 10q37 0 61 -8t38.5 -21.5t20.5 -30t6 -34.5z" />
    <glyph glyph-name="four" unicode="4" 
d="M323 404q10 12 18 19t16 7q13 0 13 -23v-296q0 -30 4.5 -38.5t20.5 -8.5h54q23 0 23 -36q0 -12 -3.5 -20t-12.5 -8h-69q-17 0 -17 -12v-180q0 -24 -28 -24h-32q-28 0 -28 22v174q0 20 -16 20h-239q-17 0 -17 14q0 9 7 19.5t20 25.5zM257 64q17 0 21 5.5t4 28.5v196
q0 8 -4 8q-2 0 -5.5 -4l-13.5 -16l-150 -184q-14 -17 -17.5 -22.5t-3.5 -7.5q0 -4 10 -4h159z" />
    <glyph glyph-name="five" unicode="5" 
d="M333 416q7 1 13 1.5t13 0.5q8 0 13.5 -5t5.5 -19q0 -32 -6.5 -48t-32.5 -18l-159 -9q-20 -1 -30 -15t-14 -43q-2 -11 2 -15t18 -6q48 -6 94 -18t82 -34.5t58 -59t22 -92.5q0 -58 -34 -104.5t-82 -79.5t-99.5 -50.5t-86.5 -17.5q-17 0 -25.5 2t-8.5 10q0 10 12.5 13
l44.5 11q23 6 55.5 20.5t62.5 37.5t51.5 55t21.5 73q0 51 -20 79.5t-49.5 42.5t-63 17t-59.5 3t-38 3t-12 14q0 14 6.5 33t14.5 47l36 137q5 18 27 20z" />
    <glyph glyph-name="six" unicode="6" 
d="M30 234q0 82 27.5 146.5t70 114.5t93 85.5t96 58t80 33t44.5 10.5q15 0 15 -15q0 -10 -32.5 -21.5t-83.5 -43.5q-36 -22 -72.5 -55.5t-65.5 -81t-47.5 -110.5t-18.5 -145q0 -42 10 -78t26.5 -62t38.5 -41t45 -15q50 0 83 38.5t33 123.5q0 42 -8.5 72t-23 49.5t-32.5 29
t-38 9.5q-21 0 -33 -3t-19 -3q-13 0 -13 11q0 8 19.5 20.5t66.5 12.5q38 0 70.5 -13t57.5 -37t39 -58t14 -76q0 -49 -20 -87.5t-51.5 -65t-70 -40t-74.5 -13.5q-44 0 -85 16t-72.5 47.5t-50 78.5t-18.5 108z" />
    <glyph glyph-name="seven" unicode="7" 
d="M197 -202q-6 -14 -18 -14q-4 0 -15.5 3t-11.5 11t2.5 15t6.5 16l161 402q24 60 24 79q0 10 -14 10h-148q-35 0 -62.5 -2t-41.5 -2q-18 0 -25 13t-7 59q0 24 15 24q9 0 17.5 -0.5t16.5 -1.5t17 -1.5t17 -0.5h294q19 0 19 -10q0 -8 -10.5 -30l-20.5 -45z" />
    <glyph glyph-name="eight" unicode="8" 
d="M160 486q0 -31 17.5 -55.5t40 -41.5t44.5 -26t32 -9q7 0 18 7t21.5 22t18.5 37.5t8 53.5q0 28 -8.5 49t-23 35.5t-32.5 22t-38 7.5q-42 0 -70 -26t-28 -76zM68 457q0 34 15 63t41.5 50t62.5 32.5t79 11.5q41 0 73.5 -12.5t55 -32t35 -44t12.5 -49.5q0 -37 -15.5 -59
t-36 -36t-40.5 -22.5t-28 -18.5q3 -7 23.5 -16.5t44.5 -29t43 -51t19 -81.5q0 -31 -14 -62.5t-40.5 -57t-64.5 -42t-87 -16.5q-40 0 -77 10.5t-65.5 30t-45 48t-16.5 65.5q0 47 20.5 75.5t46 44.5t48 22.5t26.5 9.5q-1 4 -19 14.5t-39.5 30t-39 49.5t-17.5 73zM130 147
q0 -33 10 -58.5t26.5 -43t38 -26.5t44.5 -9q21 0 41 8.5t35.5 24t25 36.5t9.5 46q0 37 -20 64.5t-46 46t-52 27.5t-38 9q-11 0 -24 -10.5t-24 -28t-18.5 -40t-7.5 -46.5z" />
    <glyph glyph-name="nine" unicode="9" 
d="M30 227q0 38 14.5 72.5t41.5 61t65.5 42t86.5 15.5q53 0 94.5 -18.5t71 -50t45 -71.5t15.5 -84q0 -73 -25.5 -132t-64.5 -104.5t-87 -78.5t-92 -54t-79.5 -31t-50.5 -10q-17 0 -17 13q0 6 7.5 10t23.5 10t41 16.5t59 31.5q33 19 66 50t59.5 73.5t43 96.5t16.5 119
q0 35 -10 68t-26.5 58.5t-39 41.5t-48.5 16q-50 0 -80 -38t-30 -112q0 -40 8.5 -68.5t22 -47t30.5 -27.5t34 -9q14 0 27.5 1t24.5 2q15 0 15 -10q0 -4 -7 -9t-18.5 -9.5t-25 -7.5t-27.5 -3q-39 0 -73 13t-58.5 36.5t-38.5 56t-14 71.5z" />
    <glyph glyph-name="colon" unicode=":" horiz-adv-x="250" 
d="M124 112q25 0 44.5 -19t19.5 -44q0 -24 -20 -41.5t-44 -17.5t-43 17.5t-19 41.5q0 25 18.5 44t43.5 19zM124 402q25 0 44.5 -19t19.5 -44q0 -24 -20 -41.5t-44 -17.5t-43 17.5t-19 41.5q0 25 18.5 44t43.5 19z" />
    <glyph glyph-name="semicolon" unicode=";" horiz-adv-x="250" 
d="M122 112q20 0 36.5 -8.5t28 -23.5t18 -34.5t6.5 -40.5q0 -39 -20 -69t-45 -50t-47.5 -30t-27.5 -10q-8 0 -10.5 1.5t-2.5 9.5q0 3 14 11.5t31.5 22.5t31.5 33t14 45q0 9 -4 20t-16 11q-8 0 -15 -1t-12 -1q-25 0 -35.5 14.5t-10.5 39.5q0 28 18.5 44t47.5 16zM124 402
q25 0 44.5 -19t19.5 -44q0 -24 -20 -41.5t-44 -17.5t-43 17.5t-19 41.5q0 25 18.5 44t43.5 19z" />
    <glyph glyph-name="less" unicode="&#x3c;" horiz-adv-x="600" 
d="M491 -5l-382 174v44l382 174v-61l-296 -135l296 -135v-61z" />
    <glyph glyph-name="equal" unicode="=" horiz-adv-x="600" 
d="M491 238h-382v56h382v-56zM491 88h-382v56h382v-56z" />
    <glyph glyph-name="greater" unicode="&#x3e;" horiz-adv-x="600" 
d="M109 56l296 135l-296 135v61l382 -174v-44l-382 -174v61z" />
    <glyph glyph-name="question" unicode="?" horiz-adv-x="389" 
d="M342 434q0 -38 -16.5 -68t-41 -53t-52.5 -40.5t-50 -29.5q-22 -11 -28 -27t-8 -51q0 -4 -8 -4q-5 0 -8 1.5t-4 8.5t-1.5 22t-0.5 41q0 17 1.5 36t4.5 37q3 15 27 29.5t51.5 34t50.5 46.5t23 66q0 16 -5 33t-14 31.5t-22 23.5t-29 9q-14 0 -25 -5t-20.5 -11t-20 -11
t-24.5 -5q-10 0 -20.5 6.5t-10.5 30.5q0 20 11.5 30.5t45.5 10.5q31 0 65.5 -11.5t63 -35t47 -59.5t18.5 -86zM140 112q25 0 44.5 -19t19.5 -44q0 -24 -20 -41.5t-44 -17.5t-43 17.5t-19 41.5q0 25 18.5 44t43.5 19z" />
    <glyph glyph-name="at" unicode="@" horiz-adv-x="800" 
d="M503 370q0 61 -41 61q-17 0 -40 -12.5t-43.5 -36.5t-34.5 -58.5t-14 -78.5q0 -42 18 -60t45 -18q14 0 31 13t33 38.5t29 63.5t17 88zM527 457h64l-62 -241q-1 -4 -2.5 -13.5t1.5 -19.5t11 -17.5t25 -7.5q31 0 54.5 18.5t39.5 47t24.5 62.5t8.5 65q0 40 -18.5 84.5
t-53.5 81.5t-86 61t-117 24q-56 0 -104.5 -21t-84.5 -62t-57 -101t-21 -138q0 -50 19 -97.5t55 -85t87 -60.5t115 -23q62 0 103.5 13.5t81.5 31.5l12 -24q-45 -21 -93 -37t-103 -16q-91 0 -157.5 30.5t-109 76.5t-63 100t-20.5 101q0 75 27.5 137t74 106t108 68.5
t130.5 24.5q65 0 121 -20.5t97.5 -57.5t65 -87t23.5 -109q0 -36 -11.5 -75.5t-33.5 -72t-54 -54t-74 -21.5q-23 0 -39.5 9t-26 20t-14 22t-3.5 15h-3q-4 -6 -13.5 -16.5t-24 -20.5t-32 -18t-38.5 -10q-9 0 -24 2.5t-29.5 14t-25 35t-10.5 63.5q0 24 11 62t34 74t57.5 62
t81.5 26q17 0 27.5 -4.5t17.5 -11.5t12 -16t9 -18z" />
    <glyph glyph-name="A" unicode="A" horiz-adv-x="722" 
d="M347 453q-2 4 -4 4.5t-4 0.5q-7 0 -12 -14l-55 -124l-5.5 -14.5t-2.5 -12.5q0 -3 6.5 -4.5t17 -2t23.5 -1t25 -0.5q29 0 48.5 0.5t19.5 5.5t-2 11zM578 137q11 -28 18.5 -45t14 -28t14.5 -17.5t20 -14.5q21 -13 36.5 -16.5t15.5 -11.5q0 -5 -4.5 -6.5t-19.5 -1.5
q-13 0 -24.5 0.5t-25.5 1.5t-32.5 1.5t-44.5 0.5h-120q-7 0 -11 2t-4 12q0 15 26 18q17 2 29.5 7t12.5 19q0 8 -3.5 16.5t-6.5 19.5l-41 133q-2 5 -6 7.5t-21 2.5q-19 0 -47 2t-80 2q-19 0 -28.5 -11.5t-21.5 -41.5l-15 -33.5t-15 -34.5t-11.5 -31t-4.5 -23q0 -22 14.5 -27
t32.5 -7q8 -1 19 -4.5t11 -14.5q0 -17 -31 -17q-9 0 -25 2t-44 2q-30 0 -55.5 -2t-58.5 -2q-17 0 -17 8q0 6 5 9.5t12.5 5.5l17 4.5t18.5 8.5q30 18 44 48l171 366q29 63 49 115.5l37 98.5h12z" />
    <glyph glyph-name="B" unicode="B" horiz-adv-x="667" 
d="M369 626q36 0 72.5 -8t66 -25.5t48 -46t18.5 -70.5q0 -36 -15 -58.5t-33 -35.5t-33 -20t-15 -12q0 -3 21 -10t45.5 -25t45.5 -49t21 -82q0 -43 -15.5 -77t-49.5 -58t-89 -36.5t-135 -12.5h-177q-17 0 -31 -0.5t-26 -1.5q-13 -1 -23.5 -1.5t-19.5 -0.5q-11 0 -13 4t-2 12
q0 17 32 20q18 2 28 5t15 9.5t6 18t1 30.5v449q0 21 -7 28.5t-41 7.5q-26 0 -32.5 3t-6.5 14q0 21 45.5 25t136.5 4h162zM230 93q0 -26 19.5 -42.5t76.5 -16.5q47 0 77.5 9.5t49.5 28t26.5 45.5t7.5 62q0 46 -18 74.5t-47.5 44t-66.5 21t-76 5.5q-32 0 -40.5 -5t-8.5 -19
v-207zM230 380q0 -6 1 -10.5t7.5 -7.5t20.5 -4.5t40 -1.5q51 0 82.5 10.5t49 27.5t24 40.5t6.5 48.5q0 37 -14.5 59t-38.5 33.5t-55 15t-64 3.5q-32 0 -45.5 -13t-13.5 -46v-155z" />
    <glyph glyph-name="C" unicode="C" horiz-adv-x="611" 
d="M374 -18q-64 0 -126.5 22t-112 62.5t-80.5 98t-31 129.5q0 92 34 155t86.5 102.5t116 57t122.5 17.5q30 0 63 -4t60.5 -11t46 -16.5t20.5 -20.5q1 -5 2 -16.5l2 -23.5t1.5 -23t0.5 -14q0 -5 -2.5 -8.5t-10.5 -3.5q-10 0 -24 17.5t-35 38t-51.5 38t-75.5 17.5
q-42 0 -82 -20.5t-71 -57.5t-50 -89t-19 -116q0 -97 26 -155t60.5 -88.5t69.5 -40t53 -9.5q51 0 86 21t58 46t36 46t22 21q5 0 8 -5.5t3 -11.5q0 -4 -2.5 -17l-5.5 -29l-6 -31t-5 -23q-4 -15 -27 -25.5t-53 -17t-60 -9.5t-47 -3z" />
    <glyph glyph-name="D" unicode="D" horiz-adv-x="778" 
d="M128 478q0 38 -1.5 58.5t-6.5 30t-14 11.5t-24 2q-11 0 -23 -1.5t-17 -1.5q-11 0 -15 2t-4 8q0 10 2.5 16.5t10.5 8.5q5 1 30.5 3.5t66 4.5t92.5 4t109 2q113 0 191 -29t127 -75.5t70.5 -104t21.5 -115.5q0 -73 -29.5 -130t-77.5 -96t-108.5 -59.5t-122.5 -20.5
q-32 0 -53.5 0.5t-36.5 1.5t-24.5 1.5t-18.5 0.5h-146q-8 0 -15 -0.5t-15 -1.5t-15 -1.5t-15 -0.5q-9 0 -15.5 2.5t-6.5 11.5q0 14 15 17q24 5 37.5 9.5t20 15.5t8.5 31t2 55v340zM246 128q0 -51 27 -73.5t81 -22.5q69 0 119 25t82.5 64t47.5 86t15 91q0 54 -20 107.5
t-58 95.5t-94.5 68.5t-129.5 26.5q-35 0 -52.5 -6.5t-17.5 -35.5v-426z" />
    <glyph glyph-name="E" unicode="E" horiz-adv-x="556" 
d="M116 518q0 9 -0.5 19t-3.5 19t-9.5 15t-18.5 7q-38 4 -46.5 8t-8.5 12q0 9 4 11.5t16 2.5q16 0 33.5 -0.5t41.5 -1.5t56.5 -1.5t78.5 -0.5q48 0 100.5 2t117.5 2q8 0 12 -1.5t6.5 -9.5t3 -25t0.5 -47q0 -29 -2 -45t-13 -16q-12 0 -17 18.5t-20 43.5q-14 23 -54.5 33.5
t-104.5 10.5q-16 0 -25.5 -1.5t-14 -7t-5.5 -17t-1 -32.5v-155q0 -7 1.5 -12.5t8 -8.5t19.5 -4.5t35 -1.5q43 0 58 9t25 24q12 18 20 37t19 19q6 0 8.5 -4t4 -9.5t1.5 -10v-5.5q0 -9 -1 -22.5t-2.5 -29.5l-3 -32.5t-1.5 -30.5q0 -31 2 -46t2 -21q0 -7 -3 -10.5t-12 -3.5
t-13 8t-12 43q-3 11 -9 20.5t-18.5 16.5t-34 10.5t-54.5 3.5q-28 0 -34.5 -5.5t-6.5 -24.5v-192q0 -14 8 -22.5t21.5 -13.5t30.5 -6.5t34 -1.5q32 0 46.5 5t29.5 13q26 15 40.5 32.5t23.5 32.5t14.5 25t14.5 10q10 0 11.5 -6t1.5 -13q0 -11 -6.5 -35t-9.5 -42
q-1 -8 -3.5 -18.5l-4.5 -19.5t-5 -15.5t-6 -6.5q-32 0 -56 0.5t-43 1.5t-34 1.5t-30 0.5h-214q-18 0 -30.5 -0.5t-20.5 -1.5t-12.5 -1.5t-7.5 -0.5q-10 0 -16.5 3t-6.5 12q0 15 12 17.5t18 3.5q25 3 39.5 6.5t22.5 14.5t10.5 32t2.5 58v375z" />
    <glyph glyph-name="F" unicode="F" horiz-adv-x="556" 
d="M234 363q0 -14 7.5 -19.5t32.5 -5.5q37 0 61 3.5t39 9t22 12.5t11 14q11 22 15 36.5t15 14.5q6 0 9.5 -2t5.5 -14t2.5 -37t0.5 -70q0 -34 -0.5 -53t-2 -28.5t-5 -11.5t-9.5 -2q-8 0 -12.5 11.5t-9.5 26.5q-4 11 -9.5 21t-18.5 18t-34.5 12.5t-56.5 4.5q-22 0 -34.5 -1
t-19 -5t-8 -11.5t-1.5 -19.5v-167q0 -19 3 -30.5t11.5 -18.5t24 -11t39.5 -8q29 -5 34.5 -9t5.5 -12q0 -10 -4.5 -12.5t-22.5 -2.5q-37 0 -73 2t-73 2q-35 0 -71 -2t-71 -2q-17 0 -17 17q0 11 10.5 14.5t52.5 4.5q11 1 19 7.5t8 34.5q0 113 3 225.5t3 225.5q0 29 -9.5 39.5
t-31.5 11.5q-29 1 -34.5 5.5t-5.5 12.5q0 11 8 14.5t30 3.5q38 0 74 -2t70 -2q21 0 57.5 0.5t75 1.5t73 1.5t50.5 0.5q15 0 24 -1t14 -5.5t6.5 -14t1.5 -26.5q0 -38 -0.5 -59t-2.5 -30.5t-5 -11.5t-9 -2q-5 0 -8 6t-5.5 14.5t-6 19t-8.5 19.5q-11 19 -33 30t-46.5 16.5
t-48.5 7t-39 1.5q-24 0 -38 -1.5t-22 -8t-10.5 -19.5t-2.5 -37v-147z" />
    <glyph glyph-name="G" unicode="G" horiz-adv-x="722" 
d="M630 51q0 -10 -23 -22t-59 -22.5t-80 -17.5t-88 -7q-64 0 -127 17t-113 54.5t-81 97t-31 143.5q0 80 28.5 142t78 104t116 64t142.5 22q30 0 66 -3t67 -9.5t52 -17t21 -25.5q1 -24 3.5 -47.5t2.5 -47.5q0 -9 -12 -9q-7 0 -10.5 4.5t-14.5 26.5q-21 45 -60.5 71.5
t-105.5 26.5q-57 0 -103 -22.5t-78 -62.5t-49.5 -95.5t-17.5 -120.5q0 -66 22.5 -117t57 -86.5t75 -53.5t75.5 -18q44 0 71 4t42 21t20 51t5 94q0 19 -1 31.5t-6.5 20.5t-15.5 11.5t-28 4.5l-38.5 3t-20 2.5t-7.5 4.5t-1 8q0 8 5 11t20 3h163q32 0 55.5 2t36.5 2
q14 0 22.5 -2t8.5 -13q0 -8 -7 -12t-37 -9q-22 -4 -29.5 -14.5t-8.5 -47.5z" />
    <glyph glyph-name="H" unicode="H" horiz-adv-x="778" 
d="M230 94q0 -21 4 -33t10 -18t12 -8t10 -3l30 -6.5t16 -4.5t6.5 -4.5t1.5 -5.5q0 -8 -4 -11.5t-20 -3.5q-13 0 -54 2t-97 2q-42 0 -68 -2t-47 -2q-13 0 -13 14q0 7 9 11t44 11q17 3 29.5 11t12.5 33v452q0 21 -6 34.5t-34 13.5q-25 0 -33 4.5t-8 15.5q0 10 4 13t15 3
q23 0 51 -2t60 -2q26 0 60 2t60 2q15 0 24 -2.5t9 -14.5q0 -10 -10.5 -13.5t-36.5 -5.5q-23 -2 -30 -11.5t-7 -32.5v-170q0 -20 4 -26t15 -6q53 0 92 0.5t70 1.5t55 1.5t47 0.5q19 0 24 9.5t5 20.5v164q0 19 -6.5 28t-16.5 12.5t-21 3.5t-20 2q-17 3 -17 22q0 8 5 12t19 4
q23 0 51 -2t60 -2q26 0 60 2t60 2q16 0 21 -2t5 -10t-7 -11t-17.5 -4.5t-21.5 -2.5t-20 -6q-7 -4 -11.5 -11t-4.5 -18v-455q0 -27 5.5 -40.5t36.5 -19.5q23 -5 31 -8t8 -14q0 -9 -5.5 -11.5t-19.5 -2.5q-21 0 -47 2t-68 2q-56 0 -96 -2t-51 -2q-16 0 -16 18q0 8 5.5 11
t33.5 7q22 3 35 7.5t19.5 19t8.5 43.5t2 81q0 39 -1 60.5t-3.5 32t-7.5 12.5t-14 2h-215q-23 0 -37 -0.5t-21.5 -3.5t-10 -8.5t-2.5 -14.5v-169z" />
    <glyph glyph-name="I" unicode="I" horiz-adv-x="389" 
d="M132 520q0 31 -8.5 42.5t-39.5 13.5q-19 1 -24.5 5t-5.5 13t5.5 13.5t22.5 4.5q18 0 40.5 -2t59.5 -2q30 0 49 0.5t32 1.5t23 1.5t22 0.5q18 0 23 -2.5t5 -9.5t-7 -11.5t-24 -6.5q-19 -1 -30 -3.5t-16.5 -7.5t-7 -14t-1.5 -23v-440q0 -19 3.5 -30t10 -17t17 -9t23.5 -6
q16 -4 24.5 -8t8.5 -16q0 -7 -3.5 -9.5t-19.5 -2.5q-20 0 -57.5 2t-92.5 2q-43 0 -69 -2t-47 -2q-11 0 -14 5t-3 14q0 11 7 13t37 4q13 1 23.5 2.5t18 9t11.5 23.5t4 44v409z" />
    <glyph glyph-name="J" unicode="J" horiz-adv-x="389" 
d="M150 423q0 3 -0.5 25.5t-1.5 48t-3 47t-5 22.5q-20 7 -34.5 8t-23.5 2t-13.5 4t-4.5 14q0 8 3.5 13t19.5 5q29 0 58 -2t58 -2q31 0 61 2t61 2q20 0 25 -2t5 -16q0 -9 -6 -13t-26 -5q-17 -1 -28 -3.5t-17 -11t-8 -24.5t-2 -43v-360q0 -87 -24 -153.5t-61 -111t-81.5 -67
t-85.5 -22.5q-21 0 -35 6.5t-22 16t-11.5 20t-3.5 18.5q0 26 16.5 40.5t42.5 14.5q19 0 29.5 -8.5t16.5 -19.5l10.5 -19.5t15.5 -8.5q23 0 33.5 9.5t19.5 35.5q5 14 9 36.5t7 51t4.5 60.5t1.5 64v326z" />
    <glyph glyph-name="K" unicode="K" horiz-adv-x="778" 
d="M242 339v-10t2 -2q8 0 18 9l22 20l185 181q11 11 16.5 16t5.5 10q0 6 -7 9t-16 4q-37 5 -46 9.5t-9 13.5q0 7 8.5 10t36.5 3h192q13 0 16.5 -2.5t3.5 -16.5q0 -2 -8.5 -4.5t-20 -4.5l-23 -4t-17.5 -4q-1 0 -6 -2.5l-10.5 -5t-10 -5t-6.5 -4.5l-207 -171q-3 -3 -3 -7
q0 -1 5 -8l260 -269q29 -29 52 -48t46 -25q22 -6 29.5 -9.5t7.5 -6.5q0 -14 -4.5 -17.5t-21.5 -3.5q-5 0 -13.5 1t-22.5 2q-27 3 -82 3q-40 0 -67.5 -0.5t-45.5 -1.5t-28 -1.5t-17 -0.5q-11 0 -16.5 3t-5.5 13q0 11 13.5 15t32.5 5q14 1 21.5 3t7.5 10q0 5 -4.5 12t-21.5 24
l-87.5 92t-107.5 103q-7 6 -14 10t-15 4q-6 0 -11.5 -6t-5.5 -17v-157q0 -24 1.5 -37.5t6 -21t14 -11.5t25.5 -8q26 -7 33 -11t7 -10q0 -8 -5.5 -11.5t-21.5 -3.5q-28 0 -55 2t-55 2q-35 0 -71 -2t-72 -2q-11 0 -15 3t-4 10q0 6 8 9.5t18.5 6t21 4.5t16.5 3q12 3 20 12t9 31
q1 17 1 42v50.5v48v35.5v192q0 42 -0.5 68t-3.5 40t-9.5 19t-18.5 6q-31 2 -40 8t-9 14q0 11 9.5 12.5t21.5 1.5q30 0 60 -2t59 -2q27 0 53.5 2t53.5 2q13 0 17.5 -2.5t4.5 -12.5q0 -8 -11.5 -10.5t-53.5 -10.5q-8 -2 -11.5 -6.5t-3.5 -17.5v-213z" />
    <glyph glyph-name="L" unicode="L" horiz-adv-x="556" 
d="M114 541q0 3 -3 9t-9 11.5t-16 10t-25 4.5q-26 0 -33 6t-7 14q0 16 18 16q33 0 66 -2t66 -2t66 2t66 2q16 0 22 -3t6 -16q0 -5 -5 -10t-17 -7q-38 -5 -57.5 -11t-19.5 -26v-447q0 -38 5.5 -47t22.5 -9h70q57 0 91.5 17t55 37.5t31 37.5t19.5 17q5 0 9.5 -4t4.5 -18
q0 -13 -3 -34.5t-8 -42t-11.5 -35.5t-13.5 -15q-29 0 -68 0.5t-79 1.5t-77 1.5t-64 0.5q-34 0 -78.5 -2t-86.5 -2q-20 0 -28 2t-8 15q0 12 19.5 15t44.5 8q12 2 18.5 5.5t10 15t4.5 35t1 64.5v385z" />
    <glyph glyph-name="M" unicode="M" horiz-adv-x="833" 
d="M395 245q8 -17 16 -31t13 -14q3 0 7.5 7t7.5 14t4 9.5t-3 -6.5l130 328q7 18 13 29.5t13.5 18.5t18.5 9.5t28 2.5h154q14 0 17 -3.5t3 -11.5t-7 -13t-38 -8q-19 -2 -30.5 -4t-17.5 -6t-8 -12t-2 -22v-432q0 -32 11 -46.5t43 -21.5q50 -10 50 -21q0 -10 -6 -13.5t-28 -3.5
q-9 0 -23 1t-31 2q-16 2 -32 2.5t-30 0.5q-29 0 -63.5 -1t-72.5 -1q-9 0 -12.5 2t-3.5 12q0 17 39 20q27 2 34 10t7 17v394q0 15 -1 21t-3 6q-7 0 -29 -56l-162 -401q-2 -6 -5.5 -7.5t-8.5 -1.5q-6 0 -9 4t-8 15l-172 394l-7 16t-8 16.5t-8 13t-6 5.5q-4 0 -4.5 -3.5
t-0.5 -6.5l-4 -317q0 -37 1.5 -59.5t6.5 -35t13.5 -17.5t21.5 -7q41 -4 52.5 -8t11.5 -15q0 -10 -7 -11.5t-24 -1.5q-14 0 -42.5 2t-66.5 2q-33 0 -53 -2t-39 -2q-13 0 -18 2t-5 11q0 11 7 16t39 7q10 1 18.5 3.5t14.5 10.5t9.5 22.5t4.5 38.5l22 413q2 29 -8.5 40t-48.5 16
q-30 5 -36 9.5t-6 13.5q0 7 3.5 11t17.5 4q16 0 38 -3l23.5 -2t21.5 -1q12 0 22.5 0.5t19.5 1.5q8 1 14.5 1.5t10.5 0.5q30 0 37 -2.5t10 -9.5z" />
    <glyph glyph-name="N" unicode="N" horiz-adv-x="778" 
d="M118 513q0 17 -3 27.5t-11.5 17.5t-24.5 10.5t-42 7.5q-11 2 -13.5 4.5t-2.5 13.5q0 5 2.5 9.5t13.5 4.5h86t54 0.5t34.5 1.5l27.5 2l242 -296q28 -34 48.5 -56.5t35.5 -37.5l24.5 -24l14.5 -14t8 -5q5 0 5 4v321q0 23 -2 36.5t-10.5 21t-24.5 10.5t-43 4
q-14 1 -17.5 4.5t-3.5 12.5t4.5 15t21.5 6t43 -2t50 -2q41 0 63.5 2t34.5 2q23 0 23 -16q0 -4 -1 -6.5t-6.5 -4.5t-16.5 -4.5t-31 -6.5t-26 -16.5t-8 -53.5q-4 -73 -6 -155.5t-2 -169.5v-199q0 -12 -3 -16t-8 -4q-13 0 -26.5 21t-47.5 59l-408 458q-2 2 -4 1t-2 -3v-185
q0 -60 2 -108.5t2 -93.5q0 -18 3 -31t11 -22t22.5 -15t38.5 -11q21 -5 29.5 -9t8.5 -10q0 -13 -7 -15t-21 -2q-27 0 -53.5 2t-54.5 2q-32 0 -53.5 -2t-42.5 -2q-13 0 -21.5 2t-8.5 13q0 18 41 21q14 1 24 3.5t17 9t10.5 18.5t3.5 33t1.5 56t2.5 69.5t2 61.5t1 31v199z" />
    <glyph glyph-name="O" unicode="O" horiz-adv-x="722" 
d="M156 304q0 -67 15 -120.5t42 -91t64 -57t81 -19.5t81 19.5t64 57t42 91t15 120.5q0 77 -15 132t-42 89.5t-64 50.5t-81 16t-81 -16t-64 -50.5t-42 -89.5t-15 -132zM28 304q0 62 23.5 120t67 103t104.5 72t135 27t135 -27t104.5 -72t67 -103t23.5 -120t-23.5 -120
t-67 -103t-104.5 -72t-135 -27t-135 27t-104.5 72t-67 103t-23.5 120z" />
    <glyph glyph-name="P" unicode="P" horiz-adv-x="611" 
d="M231 64q0 -9 2.5 -14t10 -9t21.5 -7t38 -6q14 -2 19 -5.5t5 -14.5q0 -8 -7.5 -10t-21.5 -2q-6 0 -12.5 0.5t-14.5 1.5q-7 1 -14.5 1.5t-15.5 0.5h-198q-11 0 -11 11q0 13 12.5 15t26.5 6q18 5 28.5 12.5t10.5 32.5q0 77 2 152.5t2 152.5v172q0 14 -12.5 17.5t-26.5 4.5
q-17 1 -32.5 3.5t-15.5 16.5q0 16 19 16q8 0 22 -0.5t32 -1.5q19 -1 42 -1.5t49 -0.5h125q69 0 116 -14.5t76 -39t41.5 -57t12.5 -67.5q0 -44 -17 -78t-44.5 -57.5t-63.5 -35.5t-74 -12q-27 0 -47.5 4.5t-35.5 10t-24 10t-14 4.5t-8 -1.5t-3 -7.5v-203zM232 320
q0 -15 14 -18t44 -3q18 0 43 2.5t48 16t39 42t16 79.5q0 26 -8.5 51t-25.5 44t-42 30.5t-59 11.5q-26 0 -40 -2t-20.5 -13t-7.5 -34.5t-1 -65.5v-141z" />
    <glyph glyph-name="Q" unicode="Q" horiz-adv-x="722" 
d="M156 304q0 -67 15 -120.5t42 -91t64 -57t81 -19.5t81 19.5t64 57t42 91t15 120.5q0 77 -15 132t-42 89.5t-64 50.5t-81 16t-81 -16t-64 -50.5t-42 -89.5t-15 -132zM688 304q0 -57 -20 -110.5t-57 -97t-89 -73t-116 -37.5q12 -21 36 -50.5t57.5 -56t74.5 -43.5t88 -12
q28 3 35 0.5t7 -11.5q0 -8 -11 -14t-28.5 -10.5t-39 -6.5t-43.5 -2q-89 0 -150.5 26.5t-101 63t-60 74t-27.5 58.5q-50 17 -90 48t-67.5 71t-42.5 87t-15 96q0 62 23.5 120t67 103t104.5 72t135 27t135 -27t104.5 -72t67 -103t23.5 -120z" />
    <glyph glyph-name="R" unicode="R" horiz-adv-x="667" 
d="M116 531q0 23 -10.5 33t-24.5 12q-21 2 -33 3.5t-18 3.5t-7.5 5t-1.5 7q0 11 4.5 14t15.5 3q16 0 40.5 -0.5t48.5 -1.5t44 -1.5t27 -0.5q6 0 25 0.5t42 1.5t47 1.5t40 0.5q33 0 67.5 -7t62 -23.5t45.5 -43.5t18 -67q0 -49 -18.5 -76t-41 -41.5t-41 -21t-18.5 -14.5
q0 -6 2 -10.5t7 -12.5l126 -216q13 -21 29 -32.5t32 -16.5q30 -8 37 -11t7 -8q0 -6 -1.5 -8.5t-8.5 -2.5h-177q-5 0 -10.5 2.5t-8.5 8.5l-26.5 53t-17.5 34q-34 69 -57 109t-39 60t-28.5 25t-26.5 5q-11 0 -18 -2t-10.5 -10t-4.5 -24.5t-1 -46.5v-111q0 -38 7 -53.5
t22 -17.5q44 -4 56 -8.5t12 -13.5q0 -14 -16 -14q-13 0 -24.5 0.5t-27.5 1.5t-37.5 1.5t-54.5 0.5h-137q-14 0 -18 2t-4 10q0 17 31 20q7 1 18.5 2.5t22 6t18 13t7.5 24.5q0 8 1 19.5t2.5 35.5t2.5 64t1 104v230zM234 350q0 -14 4 -17.5t14 -3.5q33 0 65 2.5t57 15t40.5 38
t15.5 70.5q0 41 -16.5 65.5t-40.5 37.5t-52 17.5t-52 4.5q-23 0 -29 -17t-6 -52v-161z" />
    <glyph glyph-name="S" unicode="S" 
d="M412 487q0 -16 -13 -16q-9 0 -15.5 18.5t-19.5 41t-37.5 41t-69.5 18.5q-34 0 -56 -10t-35.5 -25t-19 -33.5t-5.5 -35.5q0 -28 23.5 -46.5t58.5 -35.5t76.5 -34.5t76.5 -42.5t58.5 -61.5t23.5 -90.5q0 -27 -8.5 -60.5t-32.5 -63t-68 -49.5t-116 -20q-33 0 -66 4t-60 12
t-44 20t-17 28q0 17 0.5 38.5t3 41t7 33t13.5 13.5t12.5 -8t7 -21t9.5 -29.5t19 -32.5q18 -23 56.5 -43t84.5 -20q32 0 54.5 9t37.5 23t22 33t7 38q0 38 -23 63.5t-57.5 45.5t-75 38t-75 43t-57.5 59.5t-23 86.5q0 77 51 123t157 46q27 0 51.5 -2.5t43 -8t29.5 -13t11 -17.5
v-98z" />
    <glyph glyph-name="T" unicode="T" horiz-adv-x="667" 
d="M546 594q36 0 51 7t20 16t7 16t12 7q6 0 9 -5.5t3 -22.5q0 -54 -1 -85t-3.5 -46t-6 -19t-8.5 -4q-10 0 -15 16q-6 24 -14 40t-26.5 25t-50 13t-83.5 4q-32 0 -40 -4.5t-8 -19.5v-430q0 -37 6 -53.5t27 -16.5q45 0 60.5 -5.5t15.5 -15.5q0 -11 -7.5 -13t-21.5 -2
q-11 0 -29.5 0.5t-38.5 1.5t-38 1.5t-30 0.5q-18 0 -36 -1t-36 -3q-19 -2 -37 -3t-36 -1q-15 0 -18.5 3.5t-3.5 9.5q0 8 8.5 11.5t21 5t27 3.5t25.5 7q4 2 8 8.5t7.5 15.5t5.5 18t2 15v409q0 20 -1.5 31.5t-9 17t-23 7t-43.5 2.5q-54 2 -85 -15t-48 -38t-27 -39t-22 -18
q-9 0 -11.5 3t-2.5 8q0 9 4.5 25.5t11.5 36.5l14.5 41.5l14.5 42.5q7 20 11.5 25.5t12.5 5.5q10 0 11.5 -6t7 -13.5t22.5 -14t57 -6.5h378z" />
    <glyph glyph-name="U" unicode="U" horiz-adv-x="778" 
d="M125 525q1 23 -5 34t-26 11q-23 0 -36 1t-19 3t-7 5.5t-1 7.5q0 15 10.5 18t24.5 3h245q14 0 17.5 -4t3.5 -14q0 -8 -5.5 -10t-28.5 -4q-18 0 -29 -2t-17 -11t-8 -26.5t-2 -49.5l-4 -267q-1 -63 11 -102t35 -61t56.5 -29.5t75.5 -7.5q38 0 73 7.5t62.5 25.5t44 46.5
t17.5 70.5l5 337q0 14 -1 24t-8 18t-20.5 14.5t-37.5 12.5q-23 6 -29.5 9t-6.5 10q0 8 4 12.5t15 4.5q5 0 11 -0.5t12 -1.5q7 -1 13 -1.5t12 -0.5h154q6 0 7 -4t1 -7q0 -9 -4.5 -12t-27.5 -9q-32 -9 -44 -22t-13 -47l-6 -319q-2 -107 -64 -156.5t-188 -49.5q-31 0 -79 6
t-92.5 25.5t-76 56.5t-30.5 99z" />
    <glyph glyph-name="V" unicode="V" horiz-adv-x="722" 
d="M401 181q3 -6 10 -6q5 0 8 2.5t4 4.5l110 269q14 32 23 58t9 33q0 10 -5.5 16t-14.5 9.5t-20 5.5t-22 3q-18 2 -23.5 5.5t-5.5 14.5q0 10 7 13t35 3q20 0 39 -2t39 -2t38.5 2t36.5 2q17 0 28 -3t11 -14q0 -9 -7 -12t-25 -7q-25 -5 -36.5 -20.5t-18.5 -29.5l-162 -342
q-26 -55 -41.5 -93.5l-24.5 -62.5t-14.5 -35t-12.5 -11q-5 0 -14 17.5t-20 43.5l-23 55.5t-24 54.5l-175 369q-8 17 -16.5 27t-16 15.5t-14 7.5t-11.5 4q-3 2 -9.5 2t-13 1.5t-11 5t-4.5 10.5q0 5 2 8.5t9 5.5t20.5 2.5t36.5 0.5q17 0 39 -0.5t43 -1.5t37 -1.5t21 -0.5
q16 0 37.5 2t43.5 2q6 0 8.5 -4.5t2.5 -9.5q0 -14 -11 -18t-25 -4q-16 0 -30 -2.5t-14 -17.5q0 -5 1.5 -14t6.5 -20z" />
    <glyph glyph-name="W" unicode="W" horiz-adv-x="1000" 
d="M376 -12q-3 -6 -11 -6q-10 0 -15 10l-289 563q-8 15 -22 21q-17 7 -23 10.5t-6 12.5q0 10 7.5 11.5t15.5 1.5q29 0 46 -2t39 -2t47.5 2t48.5 2q18 0 27 -3t9 -17q0 -4 -5.5 -6.5t-13.5 -4.5t-16 -3t-14 -2q-5 -1 -7.5 -6t-2.5 -10q0 -7 2.5 -12.5t5.5 -11.5l201 -405
q2 -4 6 -4t6 4l72 119q6 11 6 18q0 3 -1 6t-2 5l-132 262q-12 24 -33 35q-11 6 -18.5 8t-12.5 3.5t-7 4t-2 8.5q0 5 2.5 8.5t7.5 3.5q13 0 40 -2t72 -2q33 0 57 2t46 2q23 0 27.5 -4t4.5 -17q0 -6 -8.5 -7.5t-19 -2t-20.5 -1.5t-13 -4q-2 -2 -3.5 -4.5t-1.5 -6.5t1.5 -6.5
t2.5 -4.5l77 -161q4 -8 7 -8t4 2t3 4l59 118q6 12 10.5 26.5t4.5 23.5q0 12 -17 17q-21 7 -31.5 8.5t-10.5 14.5q0 10 7 11.5t15 1.5q7 0 18.5 -0.5t24 -1.5t23.5 -1.5t17 -0.5q14 0 27.5 2t27.5 2t18.5 -3t4.5 -14q0 -7 -14 -11t-24 -8q-18 -8 -24.5 -12.5t-12.5 -15.5
l-101 -207q-3 -4 -3 -9q0 -2 1 -4t3 -5l84 -176q2 -6 10 -6q7 0 8 6l150 342q9 20 16 41t7 29q0 6 -5.5 9.5t-15.5 7.5l-26.5 11t-9.5 13t9.5 10.5t17.5 1.5q9 0 26 -2t33 -2q17 0 34 2t34 2q8 0 15 -1.5t7 -12.5q0 -10 -9 -13.5t-23 -8.5q-15 -5 -25 -18t-23 -40l-243 -525
q-5 -11 -12 -11q-14 0 -20 10l-110 220q-5 8 -8 8q-5 0 -9 -7z" />
    <glyph glyph-name="X" unicode="X" horiz-adv-x="778" 
d="M364 226l-9 13t-9 6t-16 -13.5t-34 -46.5q-32 -45 -50 -76t-18 -50q0 -13 11 -19.5t38 -10.5q29 -4 34 -6.5t5 -10.5t-4.5 -12t-18.5 -4q-34 0 -68 2t-68 2q-23 0 -45 -2t-45 -2q-26 0 -35 3t-9 14t11 15t20 4q30 0 56 16t47 37t36 41.5t22 28.5l92 105l11 12.5t3 7.5
q0 5 -4 11l-122 162q-42 57 -68.5 88t-52.5 35q-18 3 -28.5 4.5t-15.5 4t-6 5.5t-1 8q0 14 27 14q13 0 47 -2t82 -2q50 0 90.5 2t60.5 2q15 0 21 -4.5t6 -14.5q0 -11 -4 -13t-15 -4q-40 -5 -53.5 -7.5t-13.5 -13.5q0 -5 3.5 -10l6.5 -9l113 -147l4.5 -7t6.5 -4t8 4.5t6 8.5
l105 148q4 5 4 12q0 11 -8 15.5t-32 9.5q-29 5 -38 8.5t-9 13.5q0 9 8 11.5t41 2.5q29 0 59 -2t59 -2q22 0 43.5 2t43.5 2q14 0 19.5 -3.5t5.5 -14.5q0 -9 -16.5 -11.5t-33.5 -7.5q-9 -2 -18.5 -5.5t-22 -11.5t-29 -22.5t-38.5 -38.5l-70 -77l-39.5 -43t-17 -20.5
t-3.5 -10.5q0 -9 6 -17l192 -248q15 -20 36.5 -33t44.5 -16q29 -4 35 -8t6 -13t-7 -12t-39 -3q-33 0 -68 2t-64 2q-12 0 -34 -0.5t-45.5 -1.5t-43 -1.5t-25.5 -0.5q-16 0 -16 22q0 7 14 9.5t20 4.5q14 4 30.5 5.5t16.5 11.5q0 5 -4 11z" />
    <glyph glyph-name="Y" unicode="Y" horiz-adv-x="722" 
d="M288 211q0 32 -11 57.5t-34 58.5l-71 104q-32 47 -53 75t-35 43t-22.5 20t-16.5 7l-25.5 7t-10.5 13q0 11 6.5 13.5t30.5 2.5q9 0 23.5 -0.5t32 -1.5t35.5 -1.5t34 -0.5q18 0 38 0.5t37 1.5t28.5 1.5t14.5 0.5q11 0 14.5 -4.5t3.5 -10.5q0 -14 -9 -17.5t-28 -3.5
q-16 0 -26.5 -1.5t-10.5 -10.5q0 -11 5 -21t13 -22l109 -164l14.5 -18.5t16.5 -10.5q7 0 12.5 5.5t9.5 10.5l132 186q12 16 12 31q0 8 -5.5 10.5t-27.5 4.5q-29 2 -38 7t-9 13q0 7 6.5 11.5t38.5 4.5q24 0 47.5 -2t47.5 -2q17 0 33.5 2t33.5 2q16 0 16 -16q0 -9 -7.5 -12
t-30.5 -8q-6 -1 -20.5 -13.5t-29.5 -27l-27 -27t-14 -15.5l-124 -153q-15 -18 -23 -31t-12 -27t-5 -33t-1 -51v-73q0 -27 2 -45t9.5 -28.5t23.5 -15t43 -4.5q11 0 18 -4t7 -19q0 -10 -14.5 -11.5t-25.5 -1.5q-34 0 -68.5 2t-66.5 2t-66.5 -2t-70.5 -2q-6 0 -7.5 4.5
t-1.5 9.5q0 10 15.5 15.5t31.5 6.5q14 1 23.5 4t16.5 12t10 24.5t3 41.5v97z" />
    <glyph glyph-name="Z" unicode="Z" horiz-adv-x="667" 
d="M259 135q-13 -17 -26.5 -37.5t-13.5 -34.5q0 -9 4.5 -14.5t25 -8.5t62 -3.5t116.5 -0.5q55 0 87 11t49 26.5t23.5 33.5t10.5 33q4 14 7 22.5t13 8.5q6 0 8 -3t2 -13l1 -113q0 -15 -1 -24t-6 -14t-15 -6.5t-28 -1.5q-22 0 -44 0.5t-46 1.5q-23 1 -49.5 1.5t-56.5 0.5h-303
q-13 0 -21 -1t-16 -1q-11 0 -13.5 3t-2.5 9q0 7 3.5 11.5t6.5 9.5l400 518q5 5 7.5 8.5t2.5 8.5q0 3 -1 4.5t-6.5 3t-17 2t-31.5 0.5q-29 0 -68 -1t-77.5 -4.5t-70.5 -10.5t-46 -18q-13 -10 -22 -22.5t-16 -24t-14 -19t-16 -7.5q-12 0 -14.5 4t-2.5 11t9.5 31.5t19.5 55.5
q11 35 19.5 59t19.5 24q13 0 13 -7t1 -16t8.5 -16t35.5 -7q30 0 79 0.5t108 1.5q60 1 123 1.5t122 0.5q8 0 12 -6t4 -11q0 -2 -4.5 -8l-11 -14l-13.5 -16.5t-13 -16.5z" />
    <glyph glyph-name="bracketleft" unicode="[" horiz-adv-x="278" 
d="M62 185q0 14 -2.5 19.5t-16.5 5.5q-17 0 -21 7t-4 34q0 29 5 34t22 5q11 0 14 4t3 10v319q0 5 4 5q10 0 19 -4t19 -9.5t23.5 -9.5t32.5 -4q29 0 43.5 4t22 9.5t12 9.5t13.5 4t9 -8t-7 -19t-18 -20q-16 -13 -37.5 -17.5t-55.5 -4.5v-619q6 0 12.5 0.5t13.5 0.5
q20 0 37 -6.5t29.5 -15.5t19.5 -19t7 -17q0 -11 -11 -11q-3 0 -8 4t-14 9.5t-24 9.5t-39 4q-20 0 -35 -4t-26 -9.5l-19 -9.5t-13 -4q-10 0 -10 9v304z" />
    <glyph glyph-name="backslash" unicode="\" horiz-adv-x="278" 
d="M-15 626l364 -644h-56l-364 644h56z" />
    <glyph glyph-name="bracketright" unicode="]" horiz-adv-x="278" 
d="M216 -119q0 -9 -10 -9q-5 0 -13 4l-19 9.5t-26 9.5t-35 4q-24 0 -39 -4t-24 -9.5t-14 -9.5t-8 -4q-11 0 -11 11q0 7 7 17t19.5 19t29.5 15.5t37 6.5q7 0 13.5 -0.5t12.5 -0.5v619q-34 0 -55.5 4.5t-37.5 17.5q-11 9 -18 20t-7 19t9 8t13.5 -4t12 -9.5t22 -9.5t43.5 -4
q19 0 32.5 4t23.5 9.5t19 9.5t19 4q4 0 4 -5v-319q0 -6 3 -10t14 -4q17 0 22 -5t5 -34q0 -27 -4 -34t-21 -7q-14 0 -16.5 -5.5t-2.5 -19.5v-304z" />
    <glyph glyph-name="asciicircum" unicode="^" horiz-adv-x="600" 
d="M91 229l183 365h52l183 -365h-63l-146 293l-146 -293h-63z" />
    <glyph glyph-name="underscore" unicode="_" 
d="M0 -125v50h500v-50h-500z" />
    <glyph glyph-name="grave" unicode="`" horiz-adv-x="278" 
d="M169 514q-38 27 -71.5 46.5l-58 35t-39 28t-14.5 25.5q0 18 13 29.5t30 11.5q21 0 63 -47t123 -129h-46z" />
    <glyph glyph-name="a" unicode="a" 
d="M261 186q9 0 12 1.5t3 4.5q0 8 -4 19l-31 91q-2 7 -5.5 10.5t-6.5 3.5q-7 0 -14 -16l-38 -87q-2 -6 -4.5 -11t-2.5 -8q0 -8 16 -8h75zM168 146q-7 0 -11.5 -3t-10.5 -14q-3 -5 -7.5 -16.5l-9 -24t-8 -24.5t-3.5 -18q0 -12 10.5 -17t19.5 -7q11 -2 20.5 -4t9.5 -13
q0 -9 -20 -9q-15 0 -28 2t-37 2q-26 0 -40.5 -2t-28.5 -2q-20 0 -20 8t10 11.5t21 9.5q12 6 23 22t16 27l177 371q6 13 16 13q4 0 7.5 -5t5.5 -10l147 -377q9 -23 20.5 -33t22 -14t17.5 -5.5t7 -8.5q0 -9 -12 -9q-24 0 -48.5 2t-48.5 2t-48.5 -2t-48.5 -2q-15 0 -19.5 3
t-4.5 8q0 8 9 10.5t20 4.5t20 6.5t9 13.5q0 7 -7 32.5t-17 51.5q-5 12 -9 16t-11 4h-110z" />
    <glyph glyph-name="b" unicode="b" 
d="M162 0q-15 0 -30.5 -0.5t-30.5 -1.5t-30 -1.5t-31 -0.5q-8 0 -14 2.5t-6 10.5t11.5 12t22.5 6q9 2 17 5t13.5 9.5t8.5 19.5t3 35v284q0 21 -10.5 25.5t-33.5 7.5l-22.5 3.5t-9.5 12.5q0 15 20 15q17 0 53.5 2t84.5 2h110q21 0 47.5 -5t49.5 -17.5t39 -33t16 -52.5
q0 -24 -10.5 -39t-23.5 -24t-23.5 -14.5t-10.5 -10.5t14.5 -11.5t31.5 -19t31.5 -33t14.5 -54.5q0 -29 -13.5 -53.5t-37.5 -42.5t-56.5 -28t-70.5 -10h-124zM196 80q0 -33 11.5 -41.5t48.5 -8.5q50 0 76 26.5t26 72.5q0 43 -32 72t-88 29q-24 0 -33 -6.5t-9 -23.5v-120z
M196 282q0 -13 5 -19.5t19 -6.5q63 0 91.5 21t28.5 64t-26 60t-70 17q-30 0 -39 -4t-9 -18v-114z" />
    <glyph glyph-name="c" unicode="c" 
d="M32 221q0 48 19.5 91.5t55 75.5t85 51t110.5 19q16 0 36.5 -1.5t41 -4.5t37.5 -7.5t25 -10.5q4 -3 7 -15.5t5 -26t3 -25.5t1 -14q0 -9 -11 -9q-4 0 -14.5 14t-28 30.5t-42.5 30t-58 13.5q-42 0 -72.5 -18.5t-50.5 -48t-29.5 -67t-9.5 -75.5t9.5 -75.5t29.5 -67t50.5 -48
t72.5 -18.5q32 0 56.5 15t42.5 33t29.5 33t17.5 15q8 0 10 -4.5t2 -7.5q0 -7 -2 -18t-5 -23t-6.5 -23t-6.5 -17q-4 -8 -18.5 -14t-33 -10.5t-38.5 -6.5t-36 -2q-73 0 -126.5 19t-88.5 51t-52 75.5t-17 91.5z" />
    <glyph glyph-name="d" unicode="d" horiz-adv-x="611" 
d="M106 395q0 11 -12 13t-26 4t-26 4.5t-12 11.5t9.5 12.5t20.5 3.5q14 0 45.5 0.5t68.5 1.5t74 1.5t64 0.5q56 0 104 -19.5t83.5 -52t56 -73.5t20.5 -85t-19.5 -84.5t-54 -71t-81.5 -48.5t-103 -18q-36 0 -81 2.5t-81 0.5q-23 -2 -43 -2.5t-35 -0.5q-36 0 -36 14
q0 10 10 11.5t22 4.5t22 12.5t10 35.5v321zM206 100q0 -44 21 -59t66 -15q34 0 65.5 14t55.5 38.5t38 57.5t14 70q0 43 -13.5 82t-40 69t-65.5 47.5t-91 17.5q-29 0 -39.5 -5.5t-10.5 -28.5v-288z" />
    <glyph glyph-name="e" unicode="e" horiz-adv-x="444" 
d="M200 67q0 -20 11 -30.5t46 -10.5q39 0 63 13.5t38.5 30t23 30t15.5 13.5q6 0 9.5 -4t3.5 -9q0 -6 -5 -25l-15 -55q-4 -14 -11.5 -19t-26.5 -5q-38 0 -76 2t-76 2t-76 -2t-76 -2q-28 0 -28 12t11.5 14t25.5 4t25.5 8t11.5 22v330q0 20 -7 24t-25 6q-12 2 -22 4t-10 13
q0 5 6 9t22 4q12 0 52 -2t103 -2q41 0 81.5 2t81.5 2q3 0 6 -2.5t5 -11t3 -26t1 -47.5q0 -17 -3 -21t-7 -4q-6 0 -12.5 13t-19 28t-34 28t-59.5 13q-36 0 -46 -6.5t-10 -22.5v-109q0 -17 5 -22.5t21 -5.5h26q22 0 35.5 9t23 19.5t16.5 19t14 8.5q4 0 6.5 -3t2.5 -13
q0 -19 -2.5 -34.5t-3.5 -35.5q-2 -30 0 -44t2 -19q0 -13 -12 -13q-7 0 -12 12t-12.5 26t-22 26t-41.5 12h-23q-12 0 -17.5 -6t-5.5 -23v-124z" />
    <glyph glyph-name="f" unicode="f" horiz-adv-x="444" 
d="M104 394q0 15 -10.5 18.5t-22.5 4t-22.5 2t-10.5 12.5q0 10 8 12.5t28 2.5q32 0 70.5 -2t77.5 -2q42 0 82.5 0.5t81.5 3.5q10 1 15 -8t5 -50q0 -21 -0.5 -32.5t-2 -17t-4 -7t-6.5 -1.5q-10 0 -14.5 13.5t-16 29.5t-37 29.5t-77.5 13.5q-23 0 -30.5 -6.5t-7.5 -23.5v-123
q0 -8 5 -12t9 -5h28q22 0 35.5 9t23 19.5t16.5 19t14 8.5q4 0 6.5 -3t2.5 -13q0 -19 -2.5 -34.5t-3.5 -35.5q-2 -30 0 -44t2 -19q0 -13 -12 -13q-7 0 -12 12t-12.5 26t-22 26t-41.5 12h-22q-4 0 -9 -4t-5 -14v-132q0 -21 13.5 -29t30.5 -11t30.5 -4.5t13.5 -12.5
q0 -2 -2 -7.5t-10 -5.5q-20 0 -46 2t-71 2q-29 0 -58.5 -2t-58.5 -2q-9 0 -15.5 2t-6.5 10q0 13 11.5 14.5l25.5 3.5t25.5 8t11.5 24v336z" />
    <glyph glyph-name="g" unicode="g" horiz-adv-x="556" 
d="M488 46q0 -13 -18 -24t-47 -19.5t-65.5 -13.5t-72.5 -5q-62 0 -111.5 19.5t-84 51.5t-53 73.5t-18.5 86.5q0 49 20 93t57 77.5t89 53t116 19.5q23 0 48 -2.5t47 -6.5t39 -8.5t23 -9.5q5 -4 9 -29t4 -57q0 -12 -3.5 -16.5t-8.5 -4.5q-7 0 -16 17t-24.5 37t-40 37t-63.5 17
q-35 0 -68.5 -13t-59.5 -39t-42 -65.5t-16 -92.5q0 -51 17 -90t43.5 -65t58 -39.5t59.5 -13.5q23 0 39.5 3.5t28 13t17 27.5t5.5 46v49q0 25 -13 28.5t-38 3.5q-28 0 -36.5 2.5t-8.5 11.5q0 10 10.5 12.5t27.5 2.5q29 0 52.5 -2t46.5 -2q26 0 51 2t48 2q9 0 13.5 -1t4.5 -8
q0 -8 -5.5 -10t-18.5 -4q-23 -5 -32.5 -12t-9.5 -27v-106z" />
    <glyph glyph-name="h" unicode="h" horiz-adv-x="611" 
d="M412 390q0 18 -10 21t-22 5t-22 2.5t-10 13.5q0 9 5.5 11.5t14.5 2.5q24 0 47.5 -2t47.5 -2t47.5 2t47.5 2q20 0 20 -10q0 -11 -10 -14.5t-23 -5.5q-12 -2 -22.5 -5t-10.5 -21v-336q0 -17 10 -21.5t22 -6.5t22 -3.5t10 -12.5q0 -14 -22 -14q-24 0 -47.5 2t-47.5 2
t-47.5 -2t-47.5 -2q-15 0 -20.5 3.5t-5.5 7.5q0 12 11.5 14.5t25.5 4.5t25.5 6.5t11.5 21.5v122q0 19 -6.5 25.5t-25.5 6.5h-152q-17 0 -24.5 -6.5t-7.5 -25.5v-122q0 -17 10.5 -21.5t23.5 -6.5t23.5 -4t10.5 -12q0 -8 -3.5 -11t-8.5 -3q-26 0 -52 2t-52 2t-52 -2t-52 -2
q-9 0 -14.5 3.5t-5.5 7.5q0 11 11 14t25 5t25 6.5t11 21.5v336q0 18 -9.5 21t-21.5 5q-11 2 -21 2.5t-10 11.5q0 16 22 16q23 0 46.5 -2t46.5 -2t46.5 2t46.5 2q16 0 16 -14q0 -11 -9.5 -12.5l-21.5 -3.5q-11 -2 -21 -5t-10 -21v-114q0 -19 7.5 -25.5t24.5 -6.5h152
q19 0 25.5 6.5t6.5 25.5v114z" />
    <glyph glyph-name="i" unicode="i" horiz-adv-x="278" 
d="M90 390q0 18 -9.5 21t-21.5 5q-11 2 -21 2.5t-10 11.5q0 16 22 16q23 0 46.5 -2t46.5 -2t46.5 2t46.5 2q16 0 16 -14q0 -11 -9.5 -12.5l-21.5 -3.5q-11 -2 -21 -5t-10 -21v-336q0 -17 10.5 -21.5t23.5 -6.5t23.5 -4t10.5 -12q0 -8 -3.5 -11t-8.5 -3q-26 0 -52 2t-52 2
t-52 -2t-52 -2q-9 0 -14.5 3.5t-5.5 7.5q0 11 11 14t25 5t25 8t11 20v336z" />
    <glyph glyph-name="j" unicode="j" horiz-adv-x="333" 
d="M238 10q0 -39 -17 -79.5t-44 -74t-62 -55t-71 -21.5q-29 0 -47.5 15.5t-18.5 39.5q0 18 12.5 32.5t34.5 14.5q15 0 25.5 -9t18.5 -19.5l14 -19t13 -8.5q15 0 28.5 29t13.5 105v368q0 29 -1.5 46t-5.5 26t-11.5 12t-20.5 4q-14 2 -26.5 3.5t-12.5 11.5q0 5 5.5 10t14.5 5
q26 0 51.5 -2t51.5 -2t51.5 2t51.5 2q16 0 16 -10q0 -14 -10 -16t-22 -4t-22 -4.5t-10 -19.5v-382z" />
    <glyph glyph-name="k" unicode="k" horiz-adv-x="556" 
d="M98 390q0 18 -9.5 21t-21.5 5q-11 2 -21 2.5t-10 11.5q0 16 22 16q23 0 46.5 -2t46.5 -2t46.5 2t46.5 2q16 0 16 -14q0 -11 -9.5 -12.5l-21.5 -3.5q-11 -2 -21 -5t-10 -21v-133q0 -13 6 -13t16 10l122 122l13.5 14t6.5 15q0 7 -8.5 9t-18.5 3t-18.5 3.5t-8.5 10.5
q0 7 6 11t14 4q17 0 40 -2t45 -2q20 0 41 2t42 2q14 0 14 -12q0 -9 -6 -11.5t-19 -6t-33 -12t-48 -29.5l-102 -78q-8 -5 -12 -8.5t-4 -8.5q0 -3 4 -7t9 -10l188 -215q9 -10 18.5 -16t18 -9.5t13.5 -6.5t5 -9q0 -5 -3 -8t-13 -3q-24 0 -48 2t-48 2t-50.5 -2t-47.5 -2
q-9 0 -15.5 2.5t-6.5 10.5q0 9 9.5 12t20.5 5q9 2 15.5 3t6.5 6q0 8 -9.5 20t-38.5 46l-89 102q-10 11 -17 11q-10 0 -10 -20v-140q0 -17 10.5 -21.5t23.5 -6.5t23.5 -5t10.5 -14q0 -5 -3.5 -8t-8.5 -3q-26 0 -52 2t-52 2t-52 -2t-52 -2q-9 0 -14.5 3.5t-5.5 7.5q0 11 11 14
t25 5t25 8t11 20v336z" />
    <glyph glyph-name="l" unicode="l" horiz-adv-x="444" 
d="M106 392q0 14 -10.5 18t-24.5 6q-13 2 -24 3.5t-11 10.5q0 16 22 16q27 0 51.5 -2t54.5 -2q29 0 56 2t54 2q14 0 14 -14q0 -12 -12.5 -13t-28.5 -3q-15 -2 -28 -11t-13 -43v-304q0 -26 46 -26q44 0 72.5 13.5t47.5 29.5t29.5 29.5t17.5 13.5q9 0 9 -13q0 -6 -3.5 -23
t-8.5 -35.5t-10.5 -33.5t-9.5 -18q-6 1 -26 1.5t-47 1.5t-57 1.5t-56 0.5q-32 0 -56 -0.5t-43 -1.5t-34 -1.5t-29 -0.5q-13 0 -17.5 2t-4.5 10q0 14 12.5 15t27.5 3t27.5 9.5t12.5 30.5v326z" />
    <glyph glyph-name="m" unicode="m" horiz-adv-x="667" 
d="M323 34q-5 -10 -8.5 -18t-11.5 -8q-7 0 -12 7.5t-9 16.5l-116 262q-8 22 -16 22t-9 -22.5t-1 -61.5v-165q0 -23 12.5 -31t27.5 -10t27.5 -4.5t12.5 -11.5t-4 -11.5t-10 -2.5q-21 0 -42 2t-42 2q-22 0 -43 -2t-42 -2q-14 0 -18.5 3t-4.5 9q0 11 11 13.5t25 4.5t26 6t13 16
l21 252q2 27 5 52.5t3 40.5q0 10 -12.5 15.5t-28.5 7.5q-15 2 -28 3.5t-13 10.5q0 5 5 10.5t17 5.5q15 0 32.5 -2t40.5 -2q17 0 34 2t26 2q5 0 8.5 -2t8.5 -10t12.5 -23.5l20.5 -43.5l58 -124l28.5 -60.5t11.5 -15.5t11 16.5l27 65.5l67 162q8 19 17.5 27t30.5 8
q20 0 37.5 -2t34.5 -2q23 0 35 2t29 2q20 0 20 -15q0 -8 -5 -10.5t-19 -4.5q-26 -3 -44 -7.5t-18 -18.5v-324q0 -21 10 -29t33 -13l28 -6.5t11 -10.5t-5.5 -9.5t-22.5 -1.5q-22 0 -48 2t-52 2t-52.5 -2t-50.5 -2q-23 0 -23 11t11 14t25 5q18 2 27 9t9 31v244q0 14 -8 14
q-4 0 -7 -6t-8 -17z" />
    <glyph glyph-name="n" unicode="n" horiz-adv-x="611" 
d="M100 391q0 17 -12.5 20t-27.5 5t-27.5 3t-12.5 11q0 16 20 16q17 0 34.5 -2t34.5 -2t34.5 2t34.5 2q8 0 13 -2.5t10 -7.5l189 -205l56 -60.5t26 -22.5q5 0 6.5 7t1.5 15v205q0 24 -12.5 31.5t-28.5 9.5q-15 2 -28 3t-13 13q0 14 18 14q20 0 40.5 -2t40.5 -2t40.5 2
t40.5 2q8 0 12 -4.5t4 -9.5q0 -11 -11.5 -12.5l-25.5 -3.5t-25.5 -11t-11.5 -36v-363q0 -36 -14 -36q-6 0 -10 3t-10 10l-331 350q-9 11 -15 11q-7 0 -6 -12l4 -172q1 -34 1.5 -56t2 -35.5t4.5 -20.5t8 -10q9 -7 19 -8.5l24 -3.5q20 -2 27.5 -5t7.5 -13q0 -12 -17 -12
q-23 0 -45.5 2t-45.5 2t-45 -2t-41 -2q-14 0 -19 3t-5 10q0 10 9 12.5t18 3.5q11 2 22.5 3.5t20.5 9.5q4 3 7 17t5 34.5t3 46t1 50.5v205z" />
    <glyph glyph-name="o" unicode="o" horiz-adv-x="556" 
d="M20 221q0 46 18.5 89t52.5 76t81 52.5t104 19.5t104 -19.5t81 -52.5t52.5 -76t18.5 -89t-18.5 -89t-52.5 -76t-81 -52.5t-104 -19.5t-104 19.5t-81 52.5t-52.5 76t-18.5 89zM130 221q0 -103 39 -155t107 -52t107 52t39 155t-39 155t-107 52t-107 -52t-39 -155z" />
    <glyph glyph-name="p" unicode="p" 
d="M210 254q0 -25 9 -32.5t42 -7.5q43 0 72 22.5t29 68.5q0 60 -25 85.5t-69 25.5q-33 0 -45.5 -8.5t-12.5 -31.5v-122zM210 59q0 -21 12.5 -26t26.5 -7q15 -2 27 -5.5t12 -14.5q0 -7 -4.5 -8.5t-15.5 -1.5q-26 0 -51.5 2t-51.5 2t-51.5 -2t-51.5 -2q-24 0 -24 14
q0 9 11 11.5t25 4.5t25 6.5t11 20.5v345q0 11 -14.5 13.5t-30.5 4.5q-12 2 -21.5 4.5t-9.5 10.5q0 10 5.5 12.5t16.5 2.5q23 0 51 -2t75 -2q32 0 63 2t63 2q72 0 118 -35.5t46 -98.5q0 -34 -14.5 -60t-38 -43.5t-53 -26t-58.5 -8.5q-13 0 -27.5 3t-26.5 7l-21.5 7t-13.5 3
q-5 0 -7 -5t-2 -23v-107z" />
    <glyph glyph-name="q" unicode="q" horiz-adv-x="556" 
d="M20 221q0 46 18.5 89t52.5 76t81 52.5t104 19.5t104 -19.5t81 -52.5t52.5 -76t18.5 -89q0 -40 -14 -77.5t-39.5 -68t-61.5 -53t-80 -31.5q4 -29 21 -46.5t39.5 -27t47.5 -13.5t46 -6t35 -4.5t14 -8.5q0 -7 -11.5 -13t-28 -10t-35 -6t-32.5 -2q-29 0 -65 6.5t-69.5 23
t-60.5 44t-39 68.5q-41 11 -74 33.5t-56.5 52.5t-36 66t-12.5 73zM130 221q0 -103 39 -155t107 -52t107 52t39 155t-39 155t-107 52t-107 -52t-39 -155z" />
    <glyph glyph-name="r" unicode="r" 
d="M94 399q0 11 -9 13.5t-21 3.5q-15 1 -22.5 3.5t-7.5 11.5t5.5 12t19.5 3q17 0 42.5 -2t63.5 -2q43 0 70.5 2t48.5 2q29 0 55.5 -7t46 -20.5t31 -34.5t11.5 -49q0 -26 -10.5 -45t-25 -32t-29.5 -21l-25 -13l103 -177q7 -11 16.5 -17t17.5 -8t12.5 -4t4.5 -10t-5 -10
t-13 -2q-6 0 -19 1l-25 2q-17 1 -35 1h-35q-6 0 -11 8l-92 177q-11 23 -39 23q-24 0 -24 -23v-125q0 -19 11 -25.5t25 -8.5t25 -5.5t11 -13.5q0 -8 -8 -9.5t-20 -1.5q-17 0 -41.5 2t-50.5 2t-51 -2t-46 -2q-13 0 -19 2.5t-6 10.5t11 11.5t24 5.5q14 2 24.5 6.5t10.5 17.5
v349zM194 258q0 -24 26 -24q20 0 39.5 5t34.5 15.5t24.5 27.5t9.5 40q0 38 -25.5 66t-72.5 28q-20 0 -28 -6.5t-8 -17.5v-134z" />
    <glyph glyph-name="s" unicode="s" horiz-adv-x="389" 
d="M32 28q0 54 4.5 77t14.5 23q6 0 11 -18t18 -39t38 -39t69 -18q49 0 75 20t26 56q0 22 -17.5 36t-43.5 26t-57 24.5t-57 32t-43.5 48t-17.5 71.5q0 29 12 52.5t33 41t50.5 27t64.5 9.5q56 0 80.5 -10t28.5 -22q14 -44 8 -68t-16 -24q-11 0 -17.5 14.5t-16 32.5t-26 32.5
t-47.5 14.5q-45 0 -68.5 -20.5t-23.5 -46.5t18 -41.5t45 -27t58 -23t58 -29.5t45 -45t18 -71q0 -69 -42 -104.5t-134 -35.5q-66 0 -107 13.5t-41 30.5z" />
    <glyph glyph-name="t" unicode="t" 
d="M393 442q19 0 32 4t21.5 8.5t13.5 8t8 3.5q6 0 8 -21.5t2 -56.5q0 -29 -4.5 -47.5t-14.5 -18.5q-8 0 -9 6t-7 21q-3 8 -8.5 18t-15 18.5t-24.5 14.5t-37 6q-20 0 -31.5 -2t-17.5 -5.5t-7.5 -9t-1.5 -13.5v-318q0 -20 12.5 -25t26.5 -7l27 -3.5t12 -15.5q0 -8 -5.5 -9.5
t-16.5 -1.5q-28 0 -54 2t-48 2q-28 0 -55 -2t-55 -2q-11 0 -16.5 1.5t-5.5 9.5q0 14 12 15.5l27 3.5q14 2 26.5 7t12.5 25v318q0 14 -7 22t-21 8q-42 0 -67.5 -13.5t-40.5 -29.5t-23 -29.5t-17 -13.5q-10 0 -10 9q0 5 6.5 27t15.5 46.5t18.5 44t16.5 19.5q9 0 11.5 -3.5
t7 -8t15.5 -8.5t35 -4h253z" />
    <glyph glyph-name="u" unicode="u" horiz-adv-x="611" 
d="M470 363q0 30 -9 40.5t-27 12.5q-14 2 -25 3t-11 12q0 15 20 15q17 0 32.5 -2t36.5 -2q25 0 39.5 2t29.5 2q16 0 16 -14q0 -9 -7 -12.5t-25 -3.5q-11 0 -22.5 -7t-11.5 -32v-203q0 -53 -14 -89.5t-39 -59t-59.5 -32t-75.5 -9.5q-103 0 -158.5 30t-55.5 90v280
q0 20 -10.5 25t-23.5 7t-23.5 2.5t-10.5 9.5q0 11 5 14.5t15 3.5q17 0 40 -2t62 -2q30 0 58 2t42 2t19 -3.5t5 -10.5q0 -16 -22 -16q-29 0 -42.5 -8.5t-13.5 -43.5v-234q0 -62 30.5 -86t93.5 -24q34 0 60.5 8t44.5 26.5t27.5 50t9.5 77.5v181z" />
    <glyph glyph-name="v" unicode="v" 
d="M69 388q-8 20 -17.5 26.5t-17.5 8.5t-13 3t-5 9q0 11 14 11q24 0 47.5 -2t47.5 -2t47.5 2t47.5 2q18 0 18 -12q0 -8 -9.5 -10t-21.5 -2q-11 0 -21 -3t-10 -14q0 -8 7 -26.5l27 -68.5l62 -152q2 -6 4.5 -10.5t5.5 -4.5q5 0 11 18l62 175q11 29 16 44t5 24q0 20 -39 18
q-12 0 -16.5 2.5t-4.5 9.5q0 8 4.5 10t16.5 2q11 0 26.5 -2t32.5 -2t33 2t33 2q14 0 14 -11q0 -6 -6 -7.5t-14 -4t-17 -8t-14 -17.5l-157 -385q-12 -29 -22 -29q-8 0 -12.5 8.5t-9.5 20.5z" />
    <glyph glyph-name="w" unicode="w" horiz-adv-x="722" 
d="M282 0l-6.5 -10.5t-9.5 -5.5q-8 0 -11.5 5t-5.5 10l-215 411q-4 8 -10.5 11t-12.5 5t-10.5 4t-4.5 7q0 6 5 7.5t17 1.5q19 0 37 -2t37 -2t37 2t37 2q12 0 12 -10t-6.5 -11t-13.5 -3q-8 -2 -14 -2.5t-6 -5.5q0 -6 5 -14.5l10 -16.5l144 -263q5 -9 9 -9q3 0 5 3t5 8l37 59
q7 11 7 16q0 2 -3 7.5l-6 10.5l-96 186q-8 15 -17 20t-16.5 6t-12.5 1.5t-5 7.5q0 10 16 10q20 0 40 -2t40 -2t40 2t40 2q16 0 16 -12t-20 -12q-8 0 -15 -1.5t-7 -7.5q0 -3 2.5 -8t5.5 -10l58 -104l45 87q11 22 11 34q0 8 -7.5 10t-17.5 2q-9 0 -17 1.5t-8 9.5q0 11 14 11
t27 -2t27 -2t27 2t27 2q16 0 16 -10q0 -4 -5 -6.5t-12.5 -5.5t-16 -8.5t-14.5 -17.5l-65 -122l-11 -21t-4 -11t1.5 -6t3.5 -6l52 -100q8 -17 12 -17q5 0 13 19l94 209q13 28 18.5 42t5.5 22q0 5 -7 10t-15 5q-6 0 -12 2.5t-6 9.5q0 12 14 12q12 0 23.5 -2t23.5 -2t23.5 2
t23.5 2q16 0 16 -10q0 -6 -3.5 -7t-10 -4t-14.5 -11t-17 -27l-185 -386q-5 -11 -9 -14t-9 -3t-8.5 3.5t-8.5 13.5l-81 154z" />
    <glyph glyph-name="x" unicode="x" horiz-adv-x="556" 
d="M182 96q-11 -14 -20.5 -25t-9.5 -22q0 -14 11.5 -18t25.5 -5t25.5 -3t11.5 -13q0 -8 -6.5 -11t-15.5 -3q-23 0 -44.5 2t-44.5 2t-44.5 -2t-44.5 -2q-16 0 -16 10q0 7 8 10.5t22.5 10.5t34 19.5t41.5 37.5l90 100l11.5 13t4.5 9q0 3 -22 31l-105 134q-17 22 -32 32.5
t-26.5 15l-18 7t-6.5 9.5q0 11 16 11q27 0 54.5 -2t54.5 -2t56.5 2t47.5 2q21 0 21 -14q0 -8 -10.5 -10.5t-22.5 -4t-22.5 -3t-10.5 -7.5q0 -4 2 -9t8.5 -14.5t19 -25l34.5 -42.5l28 -36l32 36l19 21.5t19 23t14.5 21.5t5.5 16q0 11 -10.5 14.5t-23.5 5t-23.5 3.5t-10.5 10
q0 9 3 12t11 3q23 0 45 -2t46 -2q23 0 45.5 2t45.5 2q18 0 18 -9q0 -7 -5 -9.5t-14.5 -5.5t-22.5 -8.5t-29 -18.5q-20 -16 -44.5 -39l-45.5 -44t-35 -36.5t-14 -17.5q0 -4 2.5 -8t7.5 -10l153 -198q10 -13 21.5 -16.5t21 -4t16 -2.5t6.5 -11q0 -6 -3.5 -9t-14.5 -3
q-28 0 -55.5 2t-55.5 2t-55.5 -2t-55.5 -2q-14 0 -18 3.5t-4 9.5q0 8 10.5 10.5t22.5 4t22.5 3t10.5 8.5q0 9 -12.5 26l-31.5 41l-58 76z" />
    <glyph glyph-name="y" unicode="y" horiz-adv-x="556" 
d="M326 67q0 -31 8 -38t32 -7q15 0 27.5 -1.5t12.5 -12.5q0 -7 -5.5 -9.5t-21.5 -2.5q-20 0 -47 2t-55 2t-55 -2t-47 -2q-16 0 -21.5 2.5t-5.5 9.5q0 11 12.5 12.5t27.5 1.5q24 0 31 7t7 38v86q0 15 -5.5 29t-12.5 24l-134 192q-11 15 -21.5 19t-19 4.5t-14 1.5t-5.5 10
q0 13 26 13q17 0 41 -2t50 -2t51.5 2t48.5 2q11 0 16 -3t5 -12q0 -6 -9 -8.5t-20 -3.5t-20 -2.5t-9 -6.5q0 -11 8.5 -24t19.5 -28l63 -87q7 -10 11.5 -17.5t11.5 -7.5q8 0 14 7.5t14 18.5l41 53q23 29 37 49t14 29q0 10 -8.5 12.5t-19 3.5t-19.5 3t-9 10t5 11t11 3
q17 0 35 -2t35 -2t35 2t35 2q14 0 14 -13q0 -6 -5 -8.5t-12.5 -4t-16 -3.5t-14.5 -9l-146 -167q-13 -14 -17.5 -30.5t-4.5 -46.5v-97z" />
    <glyph glyph-name="z" unicode="z" 
d="M200 86q-6 -8 -9 -14.5t-3 -16.5q0 -7 3 -12t13.5 -8t31.5 -4t56 -1q51 0 79.5 5t43.5 17q11 9 15.5 21.5t7 24t5 20t9.5 8.5q10 0 16 -10.5t6 -48.5q0 -24 -1 -37t-3.5 -20t-7 -8.5t-12.5 -1.5h-316q-11 0 -22 -0.5t-22 -1.5t-22 -1.5t-22 -0.5t-14.5 3.5t-3.5 9.5
q0 5 2.5 12.5t10.5 18.5l246 321q11 14 18 24t7 14q0 7 -13 7h-102q-30 0 -50.5 -5.5t-34.5 -14t-22.5 -18.5t-13.5 -19q-5 -8 -9 -13.5t-12 -5.5q-13 0 -13 9q0 6 2 13l5 18l27 87q3 15 16 15t14 -15q2 -15 11 -15h319q13 0 17.5 -4t4.5 -10q0 -7 -4.5 -13.5t-12.5 -16.5z
" />
    <glyph glyph-name="braceleft" unicode="{" horiz-adv-x="278" 
d="M77 148q0 42 -14.5 65t-61.5 35q47 12 61.5 35t14.5 65v155q0 39 10 63.5t30.5 37.5t50.5 17.5t69 4.5v-24q-47 -11 -63.5 -36t-16.5 -67v-138q0 -23 -3 -41.5t-11.5 -32t-24.5 -23t-42 -15.5v-2q26 -6 42 -15.5t24.5 -23t11.5 -32t3 -41.5v-133q0 -45 16.5 -71t63.5 -37
v-24q-39 0 -69 4.5t-50.5 17.5t-30.5 37.5t-10 63.5v155z" />
    <glyph glyph-name="bar" unicode="|" horiz-adv-x="222" 
d="M83 666h56v-666h-56v666z" />
    <glyph glyph-name="braceright" unicode="}" horiz-adv-x="278" 
d="M201 348q0 -42 14.5 -65t61.5 -35q-47 -12 -61.5 -34.5t-14.5 -65.5v-155q0 -39 -10 -63.5t-30.5 -37.5t-50.5 -17.5t-69 -4.5v24q47 11 63.5 36t16.5 67v138q0 23 3 41.5t11.5 32t24.5 23t42 15.5v2q-26 6 -42 15.5t-24.5 23t-11.5 32t-3 41.5v133q0 45 -16.5 71
t-63.5 37v24q39 0 69 -4.5t50.5 -17.5t30.5 -37t10 -63v-156z" />
    <glyph glyph-name="asciitilde" unicode="~" horiz-adv-x="600" 
d="M531 215q-11 -16 -23.5 -31.5t-27 -27.5t-33 -19.5t-41.5 -7.5q-28 0 -52.5 9.5t-49.5 23.5q-24 14 -52 24.5t-63 10.5q-33 0 -52.5 -23t-31.5 -49l-36 42q8 16 19.5 31.5t26.5 27.5t34.5 19.5t44.5 7.5q26 0 54 -9.5t57 -22.5l55 -24t47 -12q30 0 50.5 23t37.5 49z" />
    <glyph glyph-name="exclamdown" unicode="&#xa1;" horiz-adv-x="278" 
d="M139 -220q-22 0 -39.5 16.5t-17.5 58.5q0 25 5.5 58l12 73t13 85.5t8.5 94.5q2 30 4.5 41t13.5 11t13.5 -11t4.5 -41q2 -49 8.5 -94.5t13.5 -85.5t12 -73t5 -58q0 -42 -17.5 -58.5t-39.5 -16.5zM138 294q-25 0 -43.5 19t-18.5 44q0 24 19 41.5t43 17.5t44 -17.5t20 -41.5
q0 -25 -19.5 -44t-44.5 -19z" />
    <glyph glyph-name="cent" unicode="&#xa2;" 
d="M249 47q30 -13 72 -13q23 0 37.5 4.5t25 10l18.5 10t17 4.5q13 0 13 -13q0 -3 -9 -14t-30 -23t-55 -21.5t-84 -9.5h-13.5t-12.5 2l-43 -133h-41l46 141q-59 17 -96.5 65.5t-37.5 127.5q0 39 17.5 77.5t49 69t75.5 49.5t98 19h13.5t12.5 -1l41 126h42l-42 -129
q32 -5 54.5 -18.5t22.5 -39.5q0 -25 -6 -35.5t-23 -10.5q-26 0 -39.5 15l-27.5 31zM311 366q-12 6 -30 6q-22 0 -44.5 -12t-39.5 -34.5t-28 -55t-11 -74.5q0 -45 15 -77.5t41 -52.5z" />
    <glyph glyph-name="sterling" unicode="&#xa3;" 
d="M44 58q0 -23 12 -34.5t40 -11.5q21 0 37.5 7.5t27.5 17.5t16.5 19t5.5 13q0 1 -6 7t-16.5 12.5t-26 12t-33.5 5.5q-9 0 -19 -2t-18.5 -7.5t-14 -14.5t-5.5 -24zM44 295v30h104l-13.5 44.5t-8.5 81.5q0 38 17 68t43 50.5t57 31.5t58 11q11 0 35 -2.5t49 -8.5t43.5 -17
t18.5 -28q0 -12 -0.5 -29t-2.5 -33t-5.5 -27.5t-9.5 -11.5q-12 0 -15.5 20t-12.5 44.5t-28.5 44.5t-63.5 20q-28 0 -47 -8.5t-30.5 -23t-16.5 -33.5t-5 -40q0 -15 4.5 -36t11 -42.5l13 -41.5t10.5 -34h142v-30h-135q1 -8 4.5 -30t3.5 -39q0 -26 -4 -49t-8.5 -41t-9 -30
l-6.5 -17q23 -6 45 -14.5t47 -8.5q42 0 66.5 13t38.5 28t20.5 28t11.5 13q6 0 9 -5.5t3 -11.5q0 -14 -7 -39t-22.5 -49.5t-40 -42.5t-59.5 -18q-24 0 -44.5 7.5t-38 18t-31.5 21.5l-23 18q-25 -27 -49 -46t-65 -19q-5 0 -18.5 2t-28 9.5t-25.5 21.5t-11 39q0 24 8.5 39.5
t21 25t27 13.5t26.5 4q21 0 39 -4.5t30.5 -10t19.5 -9t7 -0.5q0 5 1.5 11.5t1.5 15.5q0 24 -4.5 48.5t-10.5 45.5t-12 37t-9 25h-116z" />
    <glyph glyph-name="currency" unicode="&#xa4;" 
d="M429 41q9 -9 18 -13t16.5 -6t12 -5t4.5 -9q0 -12 -10 -12q-21 0 -42 2t-42 2t-41 -2t-37 -2q-13 0 -16.5 2t-3.5 7q0 6 4.5 8.5t10.5 4t10.5 3.5t4.5 6q0 5 -7.5 13.5t-18.5 19.5q-4 -3 -18 -15t-35 -25.5t-48.5 -24.5t-59.5 -11q-51 0 -84 25.5t-33 86.5q0 36 19 58.5
t41.5 36.5t41 21t18.5 11q0 3 -5 10t-11 17t-11 21.5t-5 22.5q0 20 8.5 38t24.5 31.5t38.5 22t49.5 8.5q25 0 44.5 -7.5t33 -19t20.5 -25t7 -26.5q0 -23 -12 -37.5t-27 -23t-27 -14t-12 -10.5q0 -4 8.5 -14.5t21.5 -23l27 -25.5t26 -23q8 8 17 18t16.5 20.5t12.5 20t5 16.5
t-6 10t-13.5 4.5t-14 3.5t-6.5 8q0 5 4.5 8.5t9.5 3.5q14 0 26.5 -2t26.5 -2t26.5 2t26.5 2q4 0 8 -3.5t4 -7.5q0 -7 -6.5 -9t-15.5 -4.5t-18.5 -6t-14.5 -13.5q-11 -21 -30 -45t-39 -45zM102 124q0 -16 7 -31t18.5 -26t25.5 -18t27 -7q32 0 55.5 11.5t34.5 26.5
q-25 22 -59.5 56t-60.5 66q-23 -11 -35.5 -31.5t-12.5 -46.5zM176 335q0 -17 7 -31.5t16 -25t18 -16.5t13 -6q5 0 11.5 5t13 13t11 19.5t4.5 23.5t-5.5 23t-13.5 19t-17 12.5t-17 4.5q-19 0 -30 -11t-11 -30z" />
    <glyph glyph-name="yen" unicode="&#xa5;" 
d="M68 347v30h76l-22 44l-38 72.5t-25 42t-16 20t-11 7.5q-11 3 -18 6t-7 13t4 12.5t22 2.5q8 0 27 -1.5t47 -1.5t51 1.5t35 1.5q16 0 20 -4t4 -10q0 -14 -6.5 -17t-20.5 -3q-11 0 -18.5 -1.5t-7.5 -10.5q0 -11 3.5 -21t9.5 -21l77 -160l9.5 -18.5t11.5 -10.5q5 0 9.5 5.5
t6.5 10.5l93 182q5 8 7 15t2 15t-4.5 10.5t-18.5 4.5q-20 2 -27 6.5t-7 12.5q0 7 4.5 11t27.5 4q17 0 33.5 -1.5t33.5 -1.5q11 0 23 1.5t24 1.5q11 0 11 -15q0 -9 -5 -11.5t-22 -7.5q-4 -1 -14 -13.5l-20.5 -26.5t-18.5 -26.5t-10 -14.5l-62 -105h76v-30h-93l-9 -15
q-11 -19 -17 -34.5t-8 -31.5h127v-30h-130q-1 -10 -1 -20.5v-22.5v-71q0 -27 1.5 -44.5t7 -28t16.5 -14.5t30 -4q8 0 13 -4t5 -18q0 -11 -10.5 -12.5t-17.5 -1.5q-15 0 -30 1l-31 2q-8 1 -16.5 1.5t-17.5 0.5q-11 0 -23 -0.5t-24 -1.5q-24 -3 -50 -3q-5 0 -5.5 5t-0.5 10
q0 9 11 14.5t22 6.5q19 1 27.5 15.5t8.5 64.5v95q0 8 -0.5 15t-1.5 15h-132v30h124q-8 28 -21 53l-14 28h-89z" />
    <glyph glyph-name="brokenbar" unicode="&#xa6;" horiz-adv-x="222" 
d="M83 249h56v-249h-56v249zM83 666h56v-249h-56v249z" />
    <glyph glyph-name="section" unicode="&#xa7;" 
d="M317 68q5 -3 18 -14t27 -28.5t25 -41.5t11 -52q0 -56 -39 -94t-122 -38q-27 0 -52 7t-44.5 20.5t-31 31.5t-11.5 41q0 62 59 62q24 0 39.5 -14.5t15.5 -37.5q0 -15 -6.5 -24t-14 -14.5l-14 -10t-6.5 -10.5t6.5 -11.5t16 -10t22 -7t24.5 -2.5q42 0 63 21.5t21 55.5
q0 24 -8.5 38.5t-33.5 34.5l-158 129q-27 22 -44.5 52.5t-17.5 76.5q0 54 30 88t96 32v9q-4 2 -17.5 13.5t-28 29.5t-26 41t-11.5 50q0 57 37.5 96t108.5 39q32 0 57.5 -9t43 -23.5t26.5 -32.5t9 -36q0 -20 -14 -39t-46 -19q-23 0 -38 14.5t-15 35.5q0 12 6.5 22t14 17.5
l13.5 13.5t6 10q0 9 -17 17.5t-42 8.5q-41 0 -62.5 -22t-21.5 -54q0 -22 19.5 -44t49.5 -45.5l64 -49.5t64 -56t49.5 -64.5t19.5 -75.5q0 -56 -33 -86.5t-87 -31.5v-9zM126 265q0 -17 10 -34t24.5 -32t31 -29l29.5 -25q27 -24 48.5 -36t41.5 -12q30 0 46 19t16 44
q0 21 -12 38t-37 41l-29.5 27.5t-35 29t-37.5 23t-36 9.5q-32 0 -46 -19.5t-14 -43.5z" />
    <glyph glyph-name="dieresis" unicode="&#xa8;" horiz-adv-x="278" 
d="M37 634q21 0 37 -16t16 -37t-16 -37t-37 -16q-20 0 -36 16.5t-16 36.5t16 36.5t36 16.5zM241 634q21 0 37 -16t16 -37t-16 -37t-37 -16t-37 16t-16 37t16 37t37 16z" />
    <glyph glyph-name="copyright" unicode="&#xa9;" horiz-adv-x="800" 
d="M400 -18q-66 0 -123 25.5t-100 69t-67.5 102t-24.5 124.5q0 67 24.5 126t67.5 102.5t100 69t123 25.5t123.5 -25.5t100 -69t67 -102.5t24.5 -126q0 -66 -24.5 -124.5t-67 -102t-100 -69t-123.5 -25.5zM556 224l-15 -64q0 -8 -6.5 -11t-18.5 -8q-13 -5 -38.5 -10t-57.5 -5
q-39 0 -75 10.5t-63.5 33t-43.5 57.5t-16 84q0 29 12.5 60.5t37.5 58t63 44t90 17.5q37 0 57.5 -5.5t37.5 -10.5q11 -4 16 -10t5 -12v-69h-14q-1 15 -7 30.5t-18.5 28t-32 20.5t-48.5 8q-34 0 -58.5 -12t-40.5 -33.5t-24 -50.5t-8 -63q0 -35 7.5 -65.5t24.5 -53t43 -35
t63 -12.5q49 0 75 24t39 54h14zM400 32q54 0 102 22t83 59t55.5 86.5t20.5 103.5t-20.5 103.5t-55.5 86.5t-83 59t-102 22t-102 -22t-83 -59t-55.5 -86.5t-20.5 -103.5t20.5 -103.5t55.5 -86.5t83 -59t102 -22z" />
    <glyph glyph-name="ordfeminine" unicode="&#xaa;" horiz-adv-x="266" 
d="M29 409q0 46 58 77q30 17 48 22t27.5 8.5t12 9.5t2.5 24q0 5 -0.5 12t-4 13.5t-12 11.5t-25.5 5q-18 0 -31.5 -11.5t-18.5 -27.5q-10 -29 -45 -29q-10 0 -13 3.5t-3 11.5q0 7 9.5 19.5t26.5 24.5t41.5 20.5t55.5 8.5q49 -1 65 -15.5t16 -40.5q0 -24 -1.5 -47.5
t-1.5 -47.5q0 -37 3 -46t19 -9q8 0 18 4q5 1 8 2t4 1q4 0 4 -5q0 -14 -17.5 -27.5t-44.5 -13.5q-12 0 -22 4t-17 8.5t-11.5 8.5t-6.5 4q-1 0 -9 -5t-20.5 -10.5t-29.5 -10.5t-37 -5q-7 0 -15 1.5t-15 6.5t-12 14.5t-5 25.5zM88 427q0 -14 9 -23t23 -9q20 0 31.5 6t17 16
t6.5 23.5t1 28.5q0 18 -1.5 23t-9.5 5q-1 0 -13.5 -3.5t-26.5 -12t-25.5 -21.5t-11.5 -33z" />
    <glyph glyph-name="guillemotleft" unicode="&#xab;" 
d="M319 262q32 27 49.5 43.5l27 25t13.5 11.5t8 3q5 0 7 -3t2 -6q0 -6 -15 -29l-33 -48.5l-33 -46t-15 -21.5t15.5 -21.5l34 -45.5t34 -48.5t15.5 -30.5t-9 -7q-6 0 -25 19t-41 37l-113 95v7zM157 262q32 27 49.5 43.5l27 25t13.5 11.5t8 3q5 0 7 -3t2 -6q0 -6 -15 -29
l-33 -48.5l-33 -46t-15 -21.5t15.5 -21.5l34 -45.5t34 -48.5t15.5 -30.5t-9 -7q-6 0 -25 19t-41 37l-113 95v7z" />
    <glyph glyph-name="logicalnot" unicode="&#xac;" horiz-adv-x="600" 
d="M432 238h-323v56h382v-206h-59v150z" />
    <glyph glyph-name="registered" unicode="&#xae;" horiz-adv-x="800" 
d="M251 481h161q21 0 40.5 -5t35.5 -15.5t25.5 -27t9.5 -38.5q0 -36 -23 -61t-55 -36l54 -75q19 -25 39.5 -47.5t35.5 -31.5v-9h-56q-12 0 -23 11t-23.5 31l-29.5 48t-41 62h-49v-86q0 -16 0.5 -24.5t4.5 -12.5t13.5 -5.5t27.5 -3.5v-20h-147v20q18 2 26.5 3.5t12.5 5.5
t4 12.5v24.5v219v25.5t-4 13t-12.5 6t-26.5 3.5v13zM352 307h44q35 0 52 22.5t17 62.5t-21.5 54.5t-50.5 14.5h-41v-154zM400 -18q-66 0 -123 25.5t-100 69t-67.5 102t-24.5 124.5q0 67 24.5 126t67.5 102.5t100 69t123 25.5t123.5 -25.5t100 -69t67 -102.5t24.5 -126
q0 -66 -24.5 -124.5t-67 -102t-100 -69t-123.5 -25.5zM400 32q54 0 102 22t83 59t55.5 86.5t20.5 103.5t-20.5 103.5t-55.5 86.5t-83 59t-102 22t-102 -22t-83 -59t-55.5 -86.5t-20.5 -103.5t20.5 -103.5t55.5 -86.5t83 -59t102 -22z" />
    <glyph glyph-name="macron" unicode="&#xaf;" horiz-adv-x="278" 
d="M297 553h-316v59h316v-59z" />
    <glyph glyph-name="degree" unicode="&#xb0;" horiz-adv-x="400" 
d="M301 469q0 21 -8 40t-21.5 33.5t-32 23t-39.5 8.5t-39.5 -8.5t-32 -23t-21.5 -33.5t-8 -40t8 -40t21.5 -33.5t32 -23t39.5 -8.5t39.5 8.5t32 23t21.5 33.5t8 40zM343 469q0 -30 -11 -56t-30.5 -45.5t-45.5 -30.5t-56 -11t-56 11t-45.5 30.5t-30.5 45.5t-11 56t11 56
t30.5 45.5t45.5 30.5t56 11t56 -11t45.5 -30.5t30.5 -45.5t11 -56z" />
    <glyph glyph-name="plusminus" unicode="&#xb1;" horiz-adv-x="600" 
d="M272 382h56v-112h163v-56h-163v-112h-56v112h-163v56h163v112zM109 56h382v-56h-382v56z" />
    <glyph glyph-name="twosuperior" unicode="&#xb2;" horiz-adv-x="300" 
d="M145 395q25 26 38.5 50.5t13.5 59.5q0 20 -6.5 33t-17 21t-23.5 11.5t-26 3.5q-20 0 -33.5 -7t-23 -15.5t-15.5 -15.5t-11 -7q-6 0 -8 3.5t-2 5.5q0 6 7.5 18t23 24.5t38.5 22t54 9.5q51 0 86 -23.5t35 -70.5q0 -21 -7 -38.5t-20 -34t-31.5 -33.5l-41.5 -38l-60 -53.5
t-26 -27.5q0 -2 21 -2.5t68 -0.5q24 0 44.5 1t26.5 5q8 5 11 14t5 9q8 0 10 -2.5t2 -12.5q0 -6 -0.5 -16.5t-2 -20.5t-3.5 -17.5t-4 -7.5q-29 0 -62.5 1t-59.5 1q-51 0 -72.5 -1t-33.5 -1q-15 0 -18.5 4t-3.5 10t3 10z" />
    <glyph glyph-name="threesuperior" unicode="&#xb3;" horiz-adv-x="300" 
d="M226 548q0 -22 -11 -37.5t-24.5 -25t-25 -15t-11.5 -8.5t5 -3.5t13 -1.5t19.5 -3.5t23.5 -9.5q23 -12 37 -32.5t14 -61.5q0 -24 -14 -50t-39 -48.5t-60 -37t-76 -14.5q-26 0 -41 5.5t-15 21.5q0 17 6 23.5t21 6.5q9 0 16.5 -4t15 -9.5t15.5 -9.5t19 -4q13 0 26.5 8
t24 21.5t17 32t6.5 39.5q0 15 -4.5 29.5t-14.5 26t-26 18.5t-39 7q-25 0 -39.5 -8t-20.5 -8q-10 0 -10 10q0 7 18 17.5t39 25.5t39 35.5t18 48.5q0 27 -11 38t-29 11q-14 0 -23.5 -5t-17 -11t-13 -11t-10.5 -5q-12 0 -12 10q0 3 6.5 11.5t19.5 17.5t31.5 16t43.5 7
q17 0 33.5 -3.5t30 -11.5t21.5 -20t8 -29z" />
    <glyph glyph-name="acute" unicode="&#xb4;" horiz-adv-x="278" 
d="M63 514q81 82 123 129t63 47q17 0 30 -11.5t13 -29.5q0 -13 -14 -25.5t-39 -28l-58.5 -35t-71.5 -46.5h-46z" />
    <glyph glyph-name="mu" unicode="&#xb5;" horiz-adv-x="556" 
d="M172 145q0 -60 25.5 -81.5t73.5 -21.5q15 0 33.5 4.5t34 12t26 17.5t10.5 22q0 10 0.5 25t1 38.5t1 58t0.5 82.5q0 13 -1.5 21t-8.5 13.5t-19.5 9.5t-35.5 8q-11 2 -14 5.5t-3 8.5q0 7 4 11.5t24 4.5q17 0 33 -1t32 -1q17 0 34 1t35 1q11 0 12.5 -6t1.5 -17
q0 -58 -2 -117.5t-2 -138.5q0 -24 1 -38.5t5 -22t13 -10t24 -3.5q20 -2 25 -3t5 -9q0 -5 -7 -8.5t-32 -5.5q-46 -3 -74.5 -11t-33.5 -8q-16 0 -19 6.5t-3 20.5q0 29 -6 29q-4 0 -17 -9.5t-32.5 -20.5t-45.5 -20.5t-57 -9.5q-12 0 -24 2.5l-26 5.5q-3 -45 0.5 -80.5
t3.5 -59.5q0 -37 -14 -53.5t-40 -16.5q-22 0 -37.5 10.5t-15.5 43.5q0 23 3 54l6.5 64t6 67t2.5 63l-3 251q0 8 -6 12.5t-22 8.5q-12 3 -22.5 7.5t-10.5 10.5q0 9 9 10.5t18 1.5q5 0 25.5 -1t40.5 -1q11 0 22 1t22 1q14 0 17 -8.5t3 -36.5v-194z" />
    <glyph glyph-name="paragraph" unicode="&#xb6;" horiz-adv-x="600" 
d="M305 -220h-58v417q-51 0 -88.5 15.5t-62 43.5t-36 67.5t-11.5 86.5q0 104 48.5 151t160.5 47h248v-23q-27 -2 -43 -5t-25 -8t-11.5 -12t-2.5 -18v-762h-58v798h-61v-798z" />
    <glyph glyph-name="periodcentered" unicode="&#xb7;" horiz-adv-x="250" 
d="M125 252q24 0 42.5 -18.5t18.5 -42.5t-18.5 -42.5t-42.5 -18.5t-42.5 18.5t-18.5 42.5t18.5 42.5t42.5 18.5z" />
    <glyph glyph-name="cedilla" unicode="&#xb8;" horiz-adv-x="278" 
d="M109 -64q11 2 18 3.5t17 1.5q7 0 20.5 -2.5t26.5 -10t22.5 -21.5t9.5 -38q0 -27 -13.5 -44t-32.5 -26t-38.5 -12t-31.5 -3q-26 0 -50 5t-44 13l14 31q1 1 2.5 -0.5t7.5 -3.5t17.5 -4.5t31.5 -2.5q31 0 45 10.5t14 28.5q0 22 -12 31t-35 9q-14 0 -20.5 -2.5t-7.5 -1.5
l-13 6l43 97h37z" />
    <glyph glyph-name="onesuperior" unicode="&#xb9;" horiz-adv-x="300" 
d="M74 244q-9 0 -11 0.5t-2 6.5q0 8 8 10t23 4q12 2 15 7t4 30q0 11 1 24t1.5 30.5t1 41.5t0.5 57v94q0 12 -2.5 15t-12.5 3t-20.5 -3.5t-18.5 -3.5q-2 0 -5.5 1t-3.5 6q0 7 19 13t48 14q10 2 27 10t29 8q10 0 11.5 -3t1.5 -8q0 -16 -1 -34t-2.5 -41t-2.5 -53.5t-1 -72.5
v-103q0 -23 11 -30t40 -7q10 0 13.5 -1.5t3.5 -7.5t-3.5 -7.5t-15.5 -1.5q-15 0 -30 1t-31 1h-95z" />
    <glyph glyph-name="ordmasculine" unicode="&#xba;" horiz-adv-x="300" 
d="M71 487q0 -51 22.5 -78.5t56.5 -27.5q33 0 55.5 27.5t22.5 78.5t-22.5 78t-55.5 27q-34 0 -56.5 -27t-22.5 -78zM3 487q0 27 11.5 50t31.5 39.5t46.5 26t56.5 9.5t56.5 -9.5t47 -26t32 -39.5t11.5 -50t-11.5 -50t-32 -40t-47 -26.5t-56.5 -9.5t-56.5 9.5t-46.5 26.5
t-31.5 40t-11.5 50z" />
    <glyph glyph-name="guillemotright" unicode="&#xbb;" 
d="M308 94q-22 -18 -41 -37t-25 -19q-9 0 -9 7t15.5 30.5t34 48.5l34 45.5t15.5 21.5t-15 21.5l-33 46l-33 48.5t-15 29q0 3 2 6t7 3q4 0 8 -3t13.5 -11.5l27 -25t49.5 -43.5l78 -66v-7zM146 94q-22 -18 -41 -37t-25 -19q-9 0 -9 7t15.5 30.5t34 48.5l34 45.5t15.5 21.5
t-15 21.5l-33 46l-33 48.5t-15 29q0 3 2 6t7 3q4 0 8 -3t13.5 -11.5l27 -25t49.5 -43.5l78 -66v-7z" />
    <glyph glyph-name="onequarter" unicode="&#xbc;" horiz-adv-x="750" 
d="M478 155q-2 -3 -9 -9t-7 -9q0 -2 1.5 -3t9 -1.5t23.5 -0.5h44q34 0 41 2.5t7 14.5v101q0 3 8 6.5t18.5 6.5t21.5 4.5t17 1.5q5 0 5 -6.5v-11.5v-10q0 -20 -2 -39t-2 -53q0 -11 2 -14t8 -3h47q7 0 9 -3t2 -15q0 -11 -2.5 -13.5t-13.5 -2.5h-48v-60q0 -13 3 -16.5t11 -5.5
q9 -3 18.5 -4.5t9.5 -6.5q0 -7 -12 -7q-10 0 -33 0.5t-42 0.5q-16 0 -28.5 -0.5t-23.5 -0.5q-5 0 -8.5 1t-3.5 6q0 6 7 7.5t15 3.5q10 3 13.5 11t3.5 35q0 26 -3 33t-17 7q-44 0 -69.5 -1.5t-45.5 -1.5q-26 0 -33.5 1.5t-7.5 7.5q0 11 3 15l118 139q36 41 58.5 69.5
l36.5 46.5t21.5 26t12.5 8q22 0 29.5 -1t7.5 -8q0 -5 -5 -11t-8 -10zM643 612l-450 -630h-51l450 630h51zM74 244q-9 0 -11 0.5t-2 6.5q0 8 8 10t23 4q12 2 15 7t4 30q0 11 1 24t1.5 30.5t1 41.5t0.5 57v94q0 12 -2.5 15t-12.5 3t-20.5 -3.5t-18.5 -3.5q-2 0 -5.5 1t-3.5 6
q0 7 19 13t48 14q10 2 27 10t29 8q10 0 11.5 -3t1.5 -8q0 -16 -1 -34t-2.5 -41t-2.5 -53.5t-1 -72.5v-103q0 -23 11 -30t40 -7q10 0 13.5 -1.5t3.5 -7.5t-3.5 -7.5t-15.5 -1.5q-15 0 -30 1t-31 1h-95z" />
    <glyph glyph-name="onehalf" unicode="&#xbd;" horiz-adv-x="750" 
d="M623 612l-450 -630h-51l450 630h51zM584 151q25 26 38.5 50.5t13.5 59.5q0 20 -6.5 33t-17 21t-23.5 11.5t-26 3.5q-20 0 -33.5 -7t-23 -15.5t-15.5 -15.5t-11 -7q-6 0 -8 3.5t-2 5.5q0 6 7.5 18t23 24.5t38.5 22t54 9.5q51 0 86 -23.5t35 -70.5q0 -21 -7 -38.5t-20 -34
t-31.5 -33.5l-41.5 -38l-60 -53.5t-26 -27.5q0 -2 21 -2.5t68 -0.5q24 0 44.5 1t26.5 5q8 5 11 14t5 9q8 0 10 -2.5t2 -12.5q0 -6 -0.5 -16.5t-2 -20.5t-3.5 -17.5t-4 -7.5q-29 0 -62.5 1t-59.5 1q-51 0 -72.5 -1t-33.5 -1q-15 0 -18.5 4t-3.5 10t3 10zM74 244q-9 0 -11 0.5
t-2 6.5q0 8 8 10t23 4q12 2 15 7t4 30q0 11 1 24t1.5 30.5t1 41.5t0.5 57v94q0 12 -2.5 15t-12.5 3t-20.5 -3.5t-18.5 -3.5q-2 0 -5.5 1t-3.5 6q0 7 19 13t48 14q10 2 27 10t29 8q10 0 11.5 -3t1.5 -8q0 -16 -1 -34t-2.5 -41t-2.5 -53.5t-1 -72.5v-103q0 -23 11 -30t40 -7
q10 0 13.5 -1.5t3.5 -7.5t-3.5 -7.5t-15.5 -1.5q-15 0 -30 1t-31 1h-95z" />
    <glyph glyph-name="threequarters" unicode="&#xbe;" horiz-adv-x="750" 
d="M478 155q-2 -3 -9 -9t-7 -9q0 -2 1.5 -3t9 -1.5t23.5 -0.5h44q34 0 41 2.5t7 14.5v101q0 3 8 6.5t18.5 6.5t21.5 4.5t17 1.5q5 0 5 -6.5v-11.5v-10q0 -20 -2 -39t-2 -53q0 -11 2 -14t8 -3h47q7 0 9 -3t2 -15q0 -11 -2.5 -13.5t-13.5 -2.5h-48v-60q0 -13 3 -16.5t11 -5.5
q9 -3 18.5 -4.5t9.5 -6.5q0 -7 -12 -7q-10 0 -33 0.5t-42 0.5q-16 0 -28.5 -0.5t-23.5 -0.5q-5 0 -8.5 1t-3.5 6q0 6 7 7.5t15 3.5q10 3 13.5 11t3.5 35q0 26 -3 33t-17 7q-44 0 -69.5 -1.5t-45.5 -1.5q-26 0 -33.5 1.5t-7.5 7.5q0 11 3 15l118 139q36 41 58.5 69.5
l36.5 46.5t21.5 26t12.5 8q22 0 29.5 -1t7.5 -8q0 -5 -5 -11t-8 -10zM643 612l-450 -630h-51l450 630h51zM226 548q0 -22 -11 -37.5t-24.5 -25t-25 -15t-11.5 -8.5t5 -3.5t13 -1.5t19.5 -3.5t23.5 -9.5q23 -12 37 -32.5t14 -61.5q0 -24 -14 -50t-39 -48.5t-60 -37t-76 -14.5
q-26 0 -41 5.5t-15 21.5q0 17 6 23.5t21 6.5q9 0 16.5 -4t15 -9.5t15.5 -9.5t19 -4q13 0 26.5 8t24 21.5t17 32t6.5 39.5q0 15 -4.5 29.5t-14.5 26t-26 18.5t-39 7q-25 0 -39.5 -8t-20.5 -8q-10 0 -10 10q0 7 18 17.5t39 25.5t39 35.5t18 48.5q0 27 -11 38t-29 11
q-14 0 -23.5 -5t-17 -11t-13 -11t-10.5 -5q-12 0 -12 10q0 3 6.5 11.5t19.5 17.5t31.5 16t43.5 7q17 0 33.5 -3.5t30 -11.5t21.5 -20t8 -29z" />
    <glyph glyph-name="questiondown" unicode="&#xbf;" horiz-adv-x="389" 
d="M267 -142q10 0 20.5 -6.5t10.5 -30.5q0 -20 -11.5 -30.5t-45.5 -10.5q-31 0 -65.5 11.5t-63 35t-47 59.5t-18.5 86q0 38 16.5 68t41 53t52.5 40.5t50 29.5q22 11 28 27t8 51q0 4 8 4q5 0 7.5 -1.5t4 -8.5t2 -22t0.5 -41q0 -17 -1.5 -36t-4.5 -37q-3 -15 -27 -29.5
t-51.5 -34t-50.5 -46.5t-23 -66q0 -16 5 -33t14 -31.5t22 -23.5t29 -9q14 0 25 5t20.5 11t20 11t24.5 5zM249 294q-25 0 -44.5 19t-19.5 44q0 24 20 41.5t44 17.5t43 -17.5t19 -41.5q0 -25 -18.5 -44t-43.5 -19z" />
    <glyph glyph-name="Agrave" unicode="&#xc0;" horiz-adv-x="722" 
d="M347 453q-2 4 -4 4.5t-4 0.5q-7 0 -12 -14l-55 -124l-5.5 -14.5t-2.5 -12.5q0 -3 6.5 -4.5t17 -2t23.5 -1t25 -0.5q29 0 48.5 0.5t19.5 5.5t-2 11zM578 137q11 -28 18.5 -45t14 -28t14.5 -17.5t20 -14.5q21 -13 36.5 -16.5t15.5 -11.5q0 -5 -4.5 -6.5t-19.5 -1.5
q-13 0 -24.5 0.5t-25.5 1.5t-32.5 1.5t-44.5 0.5h-120q-7 0 -11 2t-4 12q0 15 26 18q17 2 29.5 7t12.5 19q0 8 -3.5 16.5t-6.5 19.5l-41 133q-2 5 -6 7.5t-21 2.5q-19 0 -47 2t-80 2q-19 0 -28.5 -11.5t-21.5 -41.5l-15 -33.5t-15 -34.5t-11.5 -31t-4.5 -23q0 -22 14.5 -27
t32.5 -7q8 -1 19 -4.5t11 -14.5q0 -17 -31 -17q-9 0 -25 2t-44 2q-30 0 -55.5 -2t-58.5 -2q-17 0 -17 8q0 6 5 9.5t12.5 5.5l17 4.5t18.5 8.5q30 18 44 48l171 366q29 63 49 115.5l37 98.5h12zM415 654q-38 27 -71.5 46.5l-58 35t-39 28t-14.5 25.5q0 18 13 29.5t30 11.5
q21 0 63 -47t123 -129h-46z" />
    <glyph glyph-name="Aacute" unicode="&#xc1;" horiz-adv-x="722" 
d="M347 453q-2 4 -4 4.5t-4 0.5q-7 0 -12 -14l-55 -124l-5.5 -14.5t-2.5 -12.5q0 -3 6.5 -4.5t17 -2t23.5 -1t25 -0.5q29 0 48.5 0.5t19.5 5.5t-2 11zM578 137q11 -28 18.5 -45t14 -28t14.5 -17.5t20 -14.5q21 -13 36.5 -16.5t15.5 -11.5q0 -5 -4.5 -6.5t-19.5 -1.5
q-13 0 -24.5 0.5t-25.5 1.5t-32.5 1.5t-44.5 0.5h-120q-7 0 -11 2t-4 12q0 15 26 18q17 2 29.5 7t12.5 19q0 8 -3.5 16.5t-6.5 19.5l-41 133q-2 5 -6 7.5t-21 2.5q-19 0 -47 2t-80 2q-19 0 -28.5 -11.5t-21.5 -41.5l-15 -33.5t-15 -34.5t-11.5 -31t-4.5 -23q0 -22 14.5 -27
t32.5 -7q8 -1 19 -4.5t11 -14.5q0 -17 -31 -17q-9 0 -25 2t-44 2q-30 0 -55.5 -2t-58.5 -2q-17 0 -17 8q0 6 5 9.5t12.5 5.5l17 4.5t18.5 8.5q30 18 44 48l171 366q29 63 49 115.5l37 98.5h12zM309 654q81 82 123 129t63 47q17 0 30 -11.5t13 -29.5q0 -13 -14 -25.5t-39 -28
l-58.5 -35t-71.5 -46.5h-46z" />
    <glyph glyph-name="Acircumflex" unicode="&#xc2;" horiz-adv-x="722" 
d="M347 453q-2 4 -4 4.5t-4 0.5q-7 0 -12 -14l-55 -124l-5.5 -14.5t-2.5 -12.5q0 -3 6.5 -4.5t17 -2t23.5 -1t25 -0.5q29 0 48.5 0.5t19.5 5.5t-2 11zM578 137q11 -28 18.5 -45t14 -28t14.5 -17.5t20 -14.5q21 -13 36.5 -16.5t15.5 -11.5q0 -5 -4.5 -6.5t-19.5 -1.5
q-13 0 -24.5 0.5t-25.5 1.5t-32.5 1.5t-44.5 0.5h-120q-7 0 -11 2t-4 12q0 15 26 18q17 2 29.5 7t12.5 19q0 8 -3.5 16.5t-6.5 19.5l-41 133q-2 5 -6 7.5t-21 2.5q-19 0 -47 2t-80 2q-19 0 -28.5 -11.5t-21.5 -41.5l-15 -33.5t-15 -34.5t-11.5 -31t-4.5 -23q0 -22 14.5 -27
t32.5 -7q8 -1 19 -4.5t11 -14.5q0 -17 -31 -17q-9 0 -25 2t-44 2q-30 0 -55.5 -2t-58.5 -2q-17 0 -17 8q0 6 5 9.5t12.5 5.5l17 4.5t18.5 8.5q30 18 44 48l171 366q29 63 49 115.5l37 98.5h12zM350 823h70l123 -169h-42l-116 103l-116 -103h-42z" />
    <glyph glyph-name="Atilde" unicode="&#xc3;" horiz-adv-x="722" 
d="M347 453q-2 4 -4 4.5t-4 0.5q-7 0 -12 -14l-55 -124l-5.5 -14.5t-2.5 -12.5q0 -3 6.5 -4.5t17 -2t23.5 -1t25 -0.5q29 0 48.5 0.5t19.5 5.5t-2 11zM578 137q11 -28 18.5 -45t14 -28t14.5 -17.5t20 -14.5q21 -13 36.5 -16.5t15.5 -11.5q0 -5 -4.5 -6.5t-19.5 -1.5
q-13 0 -24.5 0.5t-25.5 1.5t-32.5 1.5t-44.5 0.5h-120q-7 0 -11 2t-4 12q0 15 26 18q17 2 29.5 7t12.5 19q0 8 -3.5 16.5t-6.5 19.5l-41 133q-2 5 -6 7.5t-21 2.5q-19 0 -47 2t-80 2q-19 0 -28.5 -11.5t-21.5 -41.5l-15 -33.5t-15 -34.5t-11.5 -31t-4.5 -23q0 -22 14.5 -27
t32.5 -7q8 -1 19 -4.5t11 -14.5q0 -17 -31 -17q-9 0 -25 2t-44 2q-30 0 -55.5 -2t-58.5 -2q-17 0 -17 8q0 6 5 9.5t12.5 5.5l17 4.5t18.5 8.5q30 18 44 48l171 366q29 63 49 115.5l37 98.5h12zM556 791l-9 -29t-18 -37.5t-32.5 -32t-53.5 -13.5q-20 0 -39.5 7.5t-38.5 16.5
l-34 16.5t-29 7.5q-19 0 -29.5 -7.5t-15.5 -17t-6.5 -17t-3.5 -7.5h-32q8 45 35.5 77.5t75.5 32.5q20 0 38.5 -7.5l36.5 -15.5q19 -9 37 -16.5t35 -7.5q15 0 24 8t14.5 17t7.5 17t4 8h33z" />
    <glyph glyph-name="Adieresis" unicode="&#xc4;" horiz-adv-x="722" 
d="M347 453q-2 4 -4 4.5t-4 0.5q-7 0 -12 -14l-55 -124l-5.5 -14.5t-2.5 -12.5q0 -3 6.5 -4.5t17 -2t23.5 -1t25 -0.5q29 0 48.5 0.5t19.5 5.5t-2 11zM578 137q11 -28 18.5 -45t14 -28t14.5 -17.5t20 -14.5q21 -13 36.5 -16.5t15.5 -11.5q0 -5 -4.5 -6.5t-19.5 -1.5
q-13 0 -24.5 0.5t-25.5 1.5t-32.5 1.5t-44.5 0.5h-120q-7 0 -11 2t-4 12q0 15 26 18q17 2 29.5 7t12.5 19q0 8 -3.5 16.5t-6.5 19.5l-41 133q-2 5 -6 7.5t-21 2.5q-19 0 -47 2t-80 2q-19 0 -28.5 -11.5t-21.5 -41.5l-15 -33.5t-15 -34.5t-11.5 -31t-4.5 -23q0 -22 14.5 -27
t32.5 -7q8 -1 19 -4.5t11 -14.5q0 -17 -31 -17q-9 0 -25 2t-44 2q-30 0 -55.5 -2t-58.5 -2q-17 0 -17 8q0 6 5 9.5t12.5 5.5l17 4.5t18.5 8.5q30 18 44 48l171 366q29 63 49 115.5l37 98.5h12zM283 774q21 0 37 -16t16 -37t-16 -37t-37 -16q-20 0 -36 16.5t-16 36.5t16 36.5
t36 16.5zM487 774q21 0 37 -16t16 -37t-16 -37t-37 -16t-37 16t-16 37t16 37t37 16z" />
    <glyph glyph-name="Aring" unicode="&#xc5;" horiz-adv-x="722" 
d="M347 453q-2 4 -4 4.5t-4 0.5q-7 0 -12 -14l-55 -124l-5.5 -14.5t-2.5 -12.5q0 -3 6.5 -4.5t17 -2t23.5 -1t25 -0.5q29 0 48.5 0.5t19.5 5.5t-2 11zM578 137q11 -28 18.5 -45t14 -28t14.5 -17.5t20 -14.5q21 -13 36.5 -16.5t15.5 -11.5q0 -5 -4.5 -6.5t-19.5 -1.5
q-13 0 -24.5 0.5t-25.5 1.5t-32.5 1.5t-44.5 0.5h-120q-7 0 -11 2t-4 12q0 15 26 18q17 2 29.5 7t12.5 19q0 8 -3.5 16.5t-6.5 19.5l-41 133q-2 5 -6 7.5t-21 2.5q-19 0 -47 2t-80 2q-19 0 -28.5 -11.5t-21.5 -41.5l-15 -33.5t-15 -34.5t-11.5 -31t-4.5 -23q0 -22 14.5 -27
t32.5 -7q8 -1 19 -4.5t11 -14.5q0 -17 -31 -17q-9 0 -25 2t-44 2q-30 0 -55.5 -2t-58.5 -2q-17 0 -17 8q0 6 5 9.5t12.5 5.5l17 4.5t18.5 8.5q30 18 44 48l171 366q29 63 49 115.5l37 98.5h12zM385 855q20 0 38.5 -8.5t32.5 -22.5t22.5 -32.5t8.5 -38.5t-8.5 -38.5
t-22.5 -32.5t-32.5 -22.5t-38.5 -8.5t-38.5 8.5t-32.5 22.5t-22.5 32.5t-8.5 38.5t8.5 38.5t22.5 32.5t32.5 22.5t38.5 8.5zM385 815q-24 0 -43 -19t-19 -43t19 -43t43 -19t43 19t19 43t-19 43t-43 19z" />
    <glyph glyph-name="AE" unicode="&#xc6;" horiz-adv-x="889" 
d="M433 0q-11 0 -21 -0.5t-21 -1.5t-22 -1.5t-23 -0.5q-15 0 -15 16q0 10 18.5 13.5t42.5 6.5q20 2 31 11.5t11 29.5v187l-60 2t-61 1q-17 0 -35.5 -0.5t-30.5 -2.5l-99 -168q-4 -7 -7 -14.5t-3 -15.5q0 -7 6 -12.5t14.5 -9t17 -5.5t13.5 -3q9 -2 17 -5.5t8 -12.5
q0 -10 -5 -14t-22 -4q-9 0 -25 2t-44 2q-26 0 -50.5 -2t-53.5 -2q-10 0 -12.5 3.5t-2.5 8.5q0 8 14.5 12.5t23.5 11.5l14 10t14 16l295 452q8 12 14.5 24.5t6.5 29.5q0 11 -10.5 13.5t-39.5 4.5q-17 2 -34.5 4.5t-17.5 16.5q0 9 6.5 11t17.5 2q38 0 76 -1t76 -3t75.5 -3
t75.5 -1q24 0 48 0.5t48 1.5q23 1 47 1.5t48 0.5q23 0 28 -5.5t5 -21.5v-97q0 -19 -17 -19q-8 0 -11.5 8t-7.5 19.5t-10.5 24t-19.5 21.5q-23 15 -58 22.5t-103 7.5q-30 0 -36.5 -11.5t-6.5 -46.5v-148q0 -20 8 -26t33 -6q26 0 46.5 1t36.5 5.5t28 15t21 28.5q9 19 14 28.5
t15 9.5q8 0 10.5 -6t2.5 -20q0 -17 -2.5 -45.5t-2.5 -50.5v-76q0 -8 -2 -18t-14 -10q-7 0 -9.5 4.5t-8.5 25.5l-8 27q-4 16 -19 25t-33.5 14t-36 6.5t-28.5 1.5q-17 0 -27 -1.5t-15.5 -6t-7 -13.5t-1.5 -24v-166q0 -28 17.5 -41.5t62.5 -13.5q25 0 44 2t34.5 6.5t28.5 12
t27 19.5q18 15 26.5 29t13.5 24.5t8.5 17t12.5 6.5q15 0 15 -13q0 -3 -2.5 -16.5t-6 -30.5t-7 -36t-5.5 -33q-3 -26 -16 -26q-9 0 -18 0.5t-18 1.5q-8 1 -15.5 1.5t-14.5 0.5h-314zM434 309v243q0 4 -5 4t-7 -4l-135 -221q-6 -12 -6 -17t11 -5h142z" />
    <glyph glyph-name="Ccedilla" unicode="&#xc7;" horiz-adv-x="611" 
d="M325 -14q-58 7 -112 32t-96 64.5t-67.5 93t-25.5 118.5q0 92 34 155t86.5 102.5t116 57t122.5 17.5q30 0 63 -4t60.5 -11t46 -16.5t20.5 -20.5q1 -5 2 -16.5l2 -23.5t1.5 -23t0.5 -14q0 -5 -2.5 -8.5t-10.5 -3.5q-10 0 -24 17.5t-35 38t-51.5 38t-75.5 17.5
q-42 0 -82 -20.5t-71 -57.5t-50 -89t-19 -116q0 -97 26 -155t60.5 -88.5t69.5 -40t53 -9.5q51 0 86 21t58 46t36 46t22 21q5 0 8 -5.5t3 -11.5q0 -4 -2.5 -17l-5.5 -29l-6 -31t-5 -23q-4 -15 -27 -25.5t-53 -17t-60 -9.5t-47 -3q-9 0 -13 1l-20 -47q11 2 18 3.5t17 1.5
q7 0 20.5 -2.5t26.5 -10t22.5 -21.5t9.5 -38q0 -27 -13.5 -44t-32.5 -26t-38.5 -12t-31.5 -3q-26 0 -50 5t-44 13l14 31q1 1 2.5 -0.5t7.5 -3.5t17.5 -4.5t31.5 -2.5q31 0 45 10.5t14 28.5q0 22 -12 31t-35 9q-14 0 -20.5 -2.5t-7.5 -1.5l-13 6z" />
    <glyph glyph-name="Egrave" unicode="&#xc8;" horiz-adv-x="556" 
d="M116 518q0 9 -0.5 19t-3.5 19t-9.5 15t-18.5 7q-38 4 -46.5 8t-8.5 12q0 9 4 11.5t16 2.5q16 0 33.5 -0.5t41.5 -1.5t56.5 -1.5t78.5 -0.5q48 0 100.5 2t117.5 2q8 0 12 -1.5t6.5 -9.5t3 -25t0.5 -47q0 -29 -2 -45t-13 -16q-12 0 -17 18.5t-20 43.5q-14 23 -54.5 33.5
t-104.5 10.5q-16 0 -25.5 -1.5t-14 -7t-5.5 -17t-1 -32.5v-155q0 -7 1.5 -12.5t8 -8.5t19.5 -4.5t35 -1.5q43 0 58 9t25 24q12 18 20 37t19 19q6 0 8.5 -4t4 -9.5t1.5 -10v-5.5q0 -9 -1 -22.5t-2.5 -29.5l-3 -32.5t-1.5 -30.5q0 -31 2 -46t2 -21q0 -7 -3 -10.5t-12 -3.5
t-13 8t-12 43q-3 11 -9 20.5t-18.5 16.5t-34 10.5t-54.5 3.5q-28 0 -34.5 -5.5t-6.5 -24.5v-192q0 -14 8 -22.5t21.5 -13.5t30.5 -6.5t34 -1.5q32 0 46.5 5t29.5 13q26 15 40.5 32.5t23.5 32.5t14.5 25t14.5 10q10 0 11.5 -6t1.5 -13q0 -11 -6.5 -35t-9.5 -42
q-1 -8 -3.5 -18.5l-4.5 -19.5t-5 -15.5t-6 -6.5q-32 0 -56 0.5t-43 1.5t-34 1.5t-30 0.5h-214q-18 0 -30.5 -0.5t-20.5 -1.5t-12.5 -1.5t-7.5 -0.5q-10 0 -16.5 3t-6.5 12q0 15 12 17.5t18 3.5q25 3 39.5 6.5t22.5 14.5t10.5 32t2.5 58v375zM322 654q-38 27 -71.5 46.5
l-58 35t-39 28t-14.5 25.5q0 18 13 29.5t30 11.5q21 0 63 -47t123 -129h-46z" />
    <glyph glyph-name="Eacute" unicode="&#xc9;" horiz-adv-x="556" 
d="M116 518q0 9 -0.5 19t-3.5 19t-9.5 15t-18.5 7q-38 4 -46.5 8t-8.5 12q0 9 4 11.5t16 2.5q16 0 33.5 -0.5t41.5 -1.5t56.5 -1.5t78.5 -0.5q48 0 100.5 2t117.5 2q8 0 12 -1.5t6.5 -9.5t3 -25t0.5 -47q0 -29 -2 -45t-13 -16q-12 0 -17 18.5t-20 43.5q-14 23 -54.5 33.5
t-104.5 10.5q-16 0 -25.5 -1.5t-14 -7t-5.5 -17t-1 -32.5v-155q0 -7 1.5 -12.5t8 -8.5t19.5 -4.5t35 -1.5q43 0 58 9t25 24q12 18 20 37t19 19q6 0 8.5 -4t4 -9.5t1.5 -10v-5.5q0 -9 -1 -22.5t-2.5 -29.5l-3 -32.5t-1.5 -30.5q0 -31 2 -46t2 -21q0 -7 -3 -10.5t-12 -3.5
t-13 8t-12 43q-3 11 -9 20.5t-18.5 16.5t-34 10.5t-54.5 3.5q-28 0 -34.5 -5.5t-6.5 -24.5v-192q0 -14 8 -22.5t21.5 -13.5t30.5 -6.5t34 -1.5q32 0 46.5 5t29.5 13q26 15 40.5 32.5t23.5 32.5t14.5 25t14.5 10q10 0 11.5 -6t1.5 -13q0 -11 -6.5 -35t-9.5 -42
q-1 -8 -3.5 -18.5l-4.5 -19.5t-5 -15.5t-6 -6.5q-32 0 -56 0.5t-43 1.5t-34 1.5t-30 0.5h-214q-18 0 -30.5 -0.5t-20.5 -1.5t-12.5 -1.5t-7.5 -0.5q-10 0 -16.5 3t-6.5 12q0 15 12 17.5t18 3.5q25 3 39.5 6.5t22.5 14.5t10.5 32t2.5 58v375zM216 654q81 82 123 129t63 47
q17 0 30 -11.5t13 -29.5q0 -13 -14 -25.5t-39 -28l-58.5 -35t-71.5 -46.5h-46z" />
    <glyph glyph-name="Ecircumflex" unicode="&#xca;" horiz-adv-x="556" 
d="M116 518q0 9 -0.5 19t-3.5 19t-9.5 15t-18.5 7q-38 4 -46.5 8t-8.5 12q0 9 4 11.5t16 2.5q16 0 33.5 -0.5t41.5 -1.5t56.5 -1.5t78.5 -0.5q48 0 100.5 2t117.5 2q8 0 12 -1.5t6.5 -9.5t3 -25t0.5 -47q0 -29 -2 -45t-13 -16q-12 0 -17 18.5t-20 43.5q-14 23 -54.5 33.5
t-104.5 10.5q-16 0 -25.5 -1.5t-14 -7t-5.5 -17t-1 -32.5v-155q0 -7 1.5 -12.5t8 -8.5t19.5 -4.5t35 -1.5q43 0 58 9t25 24q12 18 20 37t19 19q6 0 8.5 -4t4 -9.5t1.5 -10v-5.5q0 -9 -1 -22.5t-2.5 -29.5l-3 -32.5t-1.5 -30.5q0 -31 2 -46t2 -21q0 -7 -3 -10.5t-12 -3.5
t-13 8t-12 43q-3 11 -9 20.5t-18.5 16.5t-34 10.5t-54.5 3.5q-28 0 -34.5 -5.5t-6.5 -24.5v-192q0 -14 8 -22.5t21.5 -13.5t30.5 -6.5t34 -1.5q32 0 46.5 5t29.5 13q26 15 40.5 32.5t23.5 32.5t14.5 25t14.5 10q10 0 11.5 -6t1.5 -13q0 -11 -6.5 -35t-9.5 -42
q-1 -8 -3.5 -18.5l-4.5 -19.5t-5 -15.5t-6 -6.5q-32 0 -56 0.5t-43 1.5t-34 1.5t-30 0.5h-214q-18 0 -30.5 -0.5t-20.5 -1.5t-12.5 -1.5t-7.5 -0.5q-10 0 -16.5 3t-6.5 12q0 15 12 17.5t18 3.5q25 3 39.5 6.5t22.5 14.5t10.5 32t2.5 58v375zM257 823h70l123 -169h-42
l-116 103l-116 -103h-42z" />
    <glyph glyph-name="Edieresis" unicode="&#xcb;" horiz-adv-x="556" 
d="M116 518q0 9 -0.5 19t-3.5 19t-9.5 15t-18.5 7q-38 4 -46.5 8t-8.5 12q0 9 4 11.5t16 2.5q16 0 33.5 -0.5t41.5 -1.5t56.5 -1.5t78.5 -0.5q48 0 100.5 2t117.5 2q8 0 12 -1.5t6.5 -9.5t3 -25t0.5 -47q0 -29 -2 -45t-13 -16q-12 0 -17 18.5t-20 43.5q-14 23 -54.5 33.5
t-104.5 10.5q-16 0 -25.5 -1.5t-14 -7t-5.5 -17t-1 -32.5v-155q0 -7 1.5 -12.5t8 -8.5t19.5 -4.5t35 -1.5q43 0 58 9t25 24q12 18 20 37t19 19q6 0 8.5 -4t4 -9.5t1.5 -10v-5.5q0 -9 -1 -22.5t-2.5 -29.5l-3 -32.5t-1.5 -30.5q0 -31 2 -46t2 -21q0 -7 -3 -10.5t-12 -3.5
t-13 8t-12 43q-3 11 -9 20.5t-18.5 16.5t-34 10.5t-54.5 3.5q-28 0 -34.5 -5.5t-6.5 -24.5v-192q0 -14 8 -22.5t21.5 -13.5t30.5 -6.5t34 -1.5q32 0 46.5 5t29.5 13q26 15 40.5 32.5t23.5 32.5t14.5 25t14.5 10q10 0 11.5 -6t1.5 -13q0 -11 -6.5 -35t-9.5 -42
q-1 -8 -3.5 -18.5l-4.5 -19.5t-5 -15.5t-6 -6.5q-32 0 -56 0.5t-43 1.5t-34 1.5t-30 0.5h-214q-18 0 -30.5 -0.5t-20.5 -1.5t-12.5 -1.5t-7.5 -0.5q-10 0 -16.5 3t-6.5 12q0 15 12 17.5t18 3.5q25 3 39.5 6.5t22.5 14.5t10.5 32t2.5 58v375zM190 774q21 0 37 -16t16 -37
t-16 -37t-37 -16q-20 0 -36 16.5t-16 36.5t16 36.5t36 16.5zM394 774q21 0 37 -16t16 -37t-16 -37t-37 -16t-37 16t-16 37t16 37t37 16z" />
    <glyph glyph-name="Igrave" unicode="&#xcc;" horiz-adv-x="389" 
d="M132 520q0 31 -8.5 42.5t-39.5 13.5q-19 1 -24.5 5t-5.5 13t5.5 13.5t22.5 4.5q18 0 40.5 -2t59.5 -2q30 0 49 0.5t32 1.5t23 1.5t22 0.5q18 0 23 -2.5t5 -9.5t-7 -11.5t-24 -6.5q-19 -1 -30 -3.5t-16.5 -7.5t-7 -14t-1.5 -23v-440q0 -19 3.5 -30t10 -17t17 -9t23.5 -6
q16 -4 24.5 -8t8.5 -16q0 -7 -3.5 -9.5t-19.5 -2.5q-20 0 -57.5 2t-92.5 2q-43 0 -69 -2t-47 -2q-11 0 -14 5t-3 14q0 11 7 13t37 4q13 1 23.5 2.5t18 9t11.5 23.5t4 44v409zM225 654q-38 27 -71.5 46.5l-58 35t-39 28t-14.5 25.5q0 18 13 29.5t30 11.5q21 0 63 -47
t123 -129h-46z" />
    <glyph glyph-name="Iacute" unicode="&#xcd;" horiz-adv-x="389" 
d="M132 520q0 31 -8.5 42.5t-39.5 13.5q-19 1 -24.5 5t-5.5 13t5.5 13.5t22.5 4.5q18 0 40.5 -2t59.5 -2q30 0 49 0.5t32 1.5t23 1.5t22 0.5q18 0 23 -2.5t5 -9.5t-7 -11.5t-24 -6.5q-19 -1 -30 -3.5t-16.5 -7.5t-7 -14t-1.5 -23v-440q0 -19 3.5 -30t10 -17t17 -9t23.5 -6
q16 -4 24.5 -8t8.5 -16q0 -7 -3.5 -9.5t-19.5 -2.5q-20 0 -57.5 2t-92.5 2q-43 0 -69 -2t-47 -2q-11 0 -14 5t-3 14q0 11 7 13t37 4q13 1 23.5 2.5t18 9t11.5 23.5t4 44v409zM119 654q81 82 123 129t63 47q17 0 30 -11.5t13 -29.5q0 -13 -14 -25.5t-39 -28l-58.5 -35
t-71.5 -46.5h-46z" />
    <glyph glyph-name="Icircumflex" unicode="&#xce;" horiz-adv-x="389" 
d="M132 520q0 31 -8.5 42.5t-39.5 13.5q-19 1 -24.5 5t-5.5 13t5.5 13.5t22.5 4.5q18 0 40.5 -2t59.5 -2q30 0 49 0.5t32 1.5t23 1.5t22 0.5q18 0 23 -2.5t5 -9.5t-7 -11.5t-24 -6.5q-19 -1 -30 -3.5t-16.5 -7.5t-7 -14t-1.5 -23v-440q0 -19 3.5 -30t10 -17t17 -9t23.5 -6
q16 -4 24.5 -8t8.5 -16q0 -7 -3.5 -9.5t-19.5 -2.5q-20 0 -57.5 2t-92.5 2q-43 0 -69 -2t-47 -2q-11 0 -14 5t-3 14q0 11 7 13t37 4q13 1 23.5 2.5t18 9t11.5 23.5t4 44v409zM160 823h70l123 -169h-42l-116 103l-116 -103h-42z" />
    <glyph glyph-name="Idieresis" unicode="&#xcf;" horiz-adv-x="389" 
d="M132 520q0 31 -8.5 42.5t-39.5 13.5q-19 1 -24.5 5t-5.5 13t5.5 13.5t22.5 4.5q18 0 40.5 -2t59.5 -2q30 0 49 0.5t32 1.5t23 1.5t22 0.5q18 0 23 -2.5t5 -9.5t-7 -11.5t-24 -6.5q-19 -1 -30 -3.5t-16.5 -7.5t-7 -14t-1.5 -23v-440q0 -19 3.5 -30t10 -17t17 -9t23.5 -6
q16 -4 24.5 -8t8.5 -16q0 -7 -3.5 -9.5t-19.5 -2.5q-20 0 -57.5 2t-92.5 2q-43 0 -69 -2t-47 -2q-11 0 -14 5t-3 14q0 11 7 13t37 4q13 1 23.5 2.5t18 9t11.5 23.5t4 44v409zM93 774q21 0 37 -16t16 -37t-16 -37t-37 -16q-20 0 -36 16.5t-16 36.5t16 36.5t36 16.5zM297 774
q21 0 37 -16t16 -37t-16 -37t-37 -16t-37 16t-16 37t16 37t37 16z" />
    <glyph glyph-name="Eth" unicode="&#xd0;" horiz-adv-x="778" 
d="M128 290h-93v40h93v148q0 38 -1.5 58.5t-6.5 30t-14 11.5t-24 2q-11 0 -23 -1.5t-17 -1.5q-11 0 -15 2t-4 8q0 10 2.5 16.5t10.5 8.5q5 1 30.5 3.5t66 4.5t92.5 4t109 2q113 0 191 -29t127 -75.5t70.5 -104t21.5 -115.5q0 -73 -29.5 -130t-77.5 -96t-108.5 -59.5
t-122.5 -20.5q-32 0 -53.5 0.5t-36.5 1.5t-24.5 1.5t-18.5 0.5h-146q-8 0 -15 -0.5t-15 -1.5t-15 -1.5t-15 -0.5q-9 0 -15.5 2.5t-6.5 11.5q0 14 15 17q24 5 37.5 9.5t20 15.5t8.5 31t2 55v152zM246 128q0 -51 27 -73.5t81 -22.5q69 0 119 25t82.5 64t47.5 86t15 91
q0 54 -20 107.5t-58 95.5t-94.5 68.5t-129.5 26.5q-35 0 -52.5 -6.5t-17.5 -35.5v-224h168v-40h-168v-162z" />
    <glyph glyph-name="Ntilde" unicode="&#xd1;" horiz-adv-x="778" 
d="M118 513q0 17 -3 27.5t-11.5 17.5t-24.5 10.5t-42 7.5q-11 2 -13.5 4.5t-2.5 13.5q0 5 2.5 9.5t13.5 4.5h86t54 0.5t34.5 1.5l27.5 2l242 -296q28 -34 48.5 -56.5t35.5 -37.5l24.5 -24l14.5 -14t8 -5q5 0 5 4v321q0 23 -2 36.5t-10.5 21t-24.5 10.5t-43 4
q-14 1 -17.5 4.5t-3.5 12.5t4.5 15t21.5 6t43 -2t50 -2q41 0 63.5 2t34.5 2q23 0 23 -16q0 -4 -1 -6.5t-6.5 -4.5t-16.5 -4.5t-31 -6.5t-26 -16.5t-8 -53.5q-4 -73 -6 -155.5t-2 -169.5v-199q0 -12 -3 -16t-8 -4q-13 0 -26.5 21t-47.5 59l-408 458q-2 2 -4 1t-2 -3v-185
q0 -60 2 -108.5t2 -93.5q0 -18 3 -31t11 -22t22.5 -15t38.5 -11q21 -5 29.5 -9t8.5 -10q0 -13 -7 -15t-21 -2q-27 0 -53.5 2t-54.5 2q-32 0 -53.5 -2t-42.5 -2q-13 0 -21.5 2t-8.5 13q0 18 41 21q14 1 24 3.5t17 9t10.5 18.5t3.5 33t1.5 56t2.5 69.5t2 61.5t1 31v199z
M560 791l-9 -29t-18 -37.5t-32.5 -32t-53.5 -13.5q-20 0 -39.5 7.5t-38.5 16.5l-34 16.5t-29 7.5q-19 0 -29.5 -7.5t-15.5 -17t-6.5 -17t-3.5 -7.5h-32q8 45 35.5 77.5t75.5 32.5q20 0 38.5 -7.5l36.5 -15.5q19 -9 37 -16.5t35 -7.5q15 0 24 8t14.5 17t7.5 17t4 8h33z" />
    <glyph glyph-name="Ograve" unicode="&#xd2;" horiz-adv-x="722" 
d="M156 304q0 -67 15 -120.5t42 -91t64 -57t81 -19.5t81 19.5t64 57t42 91t15 120.5q0 77 -15 132t-42 89.5t-64 50.5t-81 16t-81 -16t-64 -50.5t-42 -89.5t-15 -132zM28 304q0 62 23.5 120t67 103t104.5 72t135 27t135 -27t104.5 -72t67 -103t23.5 -120t-23.5 -120
t-67 -103t-104.5 -72t-135 -27t-135 27t-104.5 72t-67 103t-23.5 120zM391 654q-38 27 -71.5 46.5l-58 35t-39 28t-14.5 25.5q0 18 13 29.5t30 11.5q21 0 63 -47t123 -129h-46z" />
    <glyph glyph-name="Oacute" unicode="&#xd3;" horiz-adv-x="722" 
d="M156 304q0 -67 15 -120.5t42 -91t64 -57t81 -19.5t81 19.5t64 57t42 91t15 120.5q0 77 -15 132t-42 89.5t-64 50.5t-81 16t-81 -16t-64 -50.5t-42 -89.5t-15 -132zM28 304q0 62 23.5 120t67 103t104.5 72t135 27t135 -27t104.5 -72t67 -103t23.5 -120t-23.5 -120
t-67 -103t-104.5 -72t-135 -27t-135 27t-104.5 72t-67 103t-23.5 120zM285 654q81 82 123 129t63 47q17 0 30 -11.5t13 -29.5q0 -13 -14 -25.5t-39 -28l-58.5 -35t-71.5 -46.5h-46z" />
    <glyph glyph-name="Ocircumflex" unicode="&#xd4;" horiz-adv-x="722" 
d="M156 304q0 -67 15 -120.5t42 -91t64 -57t81 -19.5t81 19.5t64 57t42 91t15 120.5q0 77 -15 132t-42 89.5t-64 50.5t-81 16t-81 -16t-64 -50.5t-42 -89.5t-15 -132zM28 304q0 62 23.5 120t67 103t104.5 72t135 27t135 -27t104.5 -72t67 -103t23.5 -120t-23.5 -120
t-67 -103t-104.5 -72t-135 -27t-135 27t-104.5 72t-67 103t-23.5 120zM326 823h70l123 -169h-42l-116 103l-116 -103h-42z" />
    <glyph glyph-name="Otilde" unicode="&#xd5;" horiz-adv-x="722" 
d="M156 304q0 -67 15 -120.5t42 -91t64 -57t81 -19.5t81 19.5t64 57t42 91t15 120.5q0 77 -15 132t-42 89.5t-64 50.5t-81 16t-81 -16t-64 -50.5t-42 -89.5t-15 -132zM28 304q0 62 23.5 120t67 103t104.5 72t135 27t135 -27t104.5 -72t67 -103t23.5 -120t-23.5 -120
t-67 -103t-104.5 -72t-135 -27t-135 27t-104.5 72t-67 103t-23.5 120zM532 791l-9 -29t-18 -37.5t-32.5 -32t-53.5 -13.5q-20 0 -39.5 7.5t-38.5 16.5l-34 16.5t-29 7.5q-19 0 -29.5 -7.5t-15.5 -17t-6.5 -17t-3.5 -7.5h-32q8 45 35.5 77.5t75.5 32.5q20 0 38.5 -7.5
l36.5 -15.5q19 -9 37 -16.5t35 -7.5q15 0 24 8t14.5 17t7.5 17t4 8h33z" />
    <glyph glyph-name="Odieresis" unicode="&#xd6;" horiz-adv-x="722" 
d="M156 304q0 -67 15 -120.5t42 -91t64 -57t81 -19.5t81 19.5t64 57t42 91t15 120.5q0 77 -15 132t-42 89.5t-64 50.5t-81 16t-81 -16t-64 -50.5t-42 -89.5t-15 -132zM28 304q0 62 23.5 120t67 103t104.5 72t135 27t135 -27t104.5 -72t67 -103t23.5 -120t-23.5 -120
t-67 -103t-104.5 -72t-135 -27t-135 27t-104.5 72t-67 103t-23.5 120zM259 774q21 0 37 -16t16 -37t-16 -37t-37 -16q-20 0 -36 16.5t-16 36.5t16 36.5t36 16.5zM463 774q21 0 37 -16t16 -37t-16 -37t-37 -16t-37 16t-16 37t16 37t37 16z" />
    <glyph glyph-name="multiply" unicode="&#xd7;" horiz-adv-x="600" 
d="M109 343l40 39l151 -152l152 152l39 -39l-151 -152l151 -151l-39 -40l-152 151l-151 -151l-40 40l151 151z" />
    <glyph glyph-name="Oslash" unicode="&#xd8;" horiz-adv-x="722" 
d="M489 541q-27 27 -60 39t-71 12q-44 0 -81 -16t-64 -50.5t-42 -89.5t-15 -132q0 -119 46 -193zM228 75q51 -59 130 -59q44 0 81 19.5t64 57t42 91t15 120.5q0 69 -11.5 119t-32.5 84zM159 46q-63 46 -97 114.5t-34 143.5q0 62 23.5 120t67 103t104.5 72t135 27
q89 0 161 -40l62 92h49l-76 -114q63 -45 98.5 -114t35.5 -146q0 -62 -23.5 -120t-67 -103t-104.5 -72t-135 -27q-47 0 -88 11t-76 31l-70 -106h-51z" />
    <glyph glyph-name="Ugrave" unicode="&#xd9;" horiz-adv-x="778" 
d="M125 525q1 23 -5 34t-26 11q-23 0 -36 1t-19 3t-7 5.5t-1 7.5q0 15 10.5 18t24.5 3h245q14 0 17.5 -4t3.5 -14q0 -8 -5.5 -10t-28.5 -4q-18 0 -29 -2t-17 -11t-8 -26.5t-2 -49.5l-4 -267q-1 -63 11 -102t35 -61t56.5 -29.5t75.5 -7.5q38 0 73 7.5t62.5 25.5t44 46.5
t17.5 70.5l5 337q0 14 -1 24t-8 18t-20.5 14.5t-37.5 12.5q-23 6 -29.5 9t-6.5 10q0 8 4 12.5t15 4.5q5 0 11 -0.5t12 -1.5q7 -1 13 -1.5t12 -0.5h154q6 0 7 -4t1 -7q0 -9 -4.5 -12t-27.5 -9q-32 -9 -44 -22t-13 -47l-6 -319q-2 -107 -64 -156.5t-188 -49.5q-31 0 -79 6
t-92.5 25.5t-76 56.5t-30.5 99zM442 654q-38 27 -71.5 46.5l-58 35t-39 28t-14.5 25.5q0 18 13 29.5t30 11.5q21 0 63 -47t123 -129h-46z" />
    <glyph glyph-name="Uacute" unicode="&#xda;" horiz-adv-x="778" 
d="M125 525q1 23 -5 34t-26 11q-23 0 -36 1t-19 3t-7 5.5t-1 7.5q0 15 10.5 18t24.5 3h245q14 0 17.5 -4t3.5 -14q0 -8 -5.5 -10t-28.5 -4q-18 0 -29 -2t-17 -11t-8 -26.5t-2 -49.5l-4 -267q-1 -63 11 -102t35 -61t56.5 -29.5t75.5 -7.5q38 0 73 7.5t62.5 25.5t44 46.5
t17.5 70.5l5 337q0 14 -1 24t-8 18t-20.5 14.5t-37.5 12.5q-23 6 -29.5 9t-6.5 10q0 8 4 12.5t15 4.5q5 0 11 -0.5t12 -1.5q7 -1 13 -1.5t12 -0.5h154q6 0 7 -4t1 -7q0 -9 -4.5 -12t-27.5 -9q-32 -9 -44 -22t-13 -47l-6 -319q-2 -107 -64 -156.5t-188 -49.5q-31 0 -79 6
t-92.5 25.5t-76 56.5t-30.5 99zM336 654q81 82 123 129t63 47q17 0 30 -11.5t13 -29.5q0 -13 -14 -25.5t-39 -28l-58.5 -35t-71.5 -46.5h-46z" />
    <glyph glyph-name="Ucircumflex" unicode="&#xdb;" horiz-adv-x="778" 
d="M125 525q1 23 -5 34t-26 11q-23 0 -36 1t-19 3t-7 5.5t-1 7.5q0 15 10.5 18t24.5 3h245q14 0 17.5 -4t3.5 -14q0 -8 -5.5 -10t-28.5 -4q-18 0 -29 -2t-17 -11t-8 -26.5t-2 -49.5l-4 -267q-1 -63 11 -102t35 -61t56.5 -29.5t75.5 -7.5q38 0 73 7.5t62.5 25.5t44 46.5
t17.5 70.5l5 337q0 14 -1 24t-8 18t-20.5 14.5t-37.5 12.5q-23 6 -29.5 9t-6.5 10q0 8 4 12.5t15 4.5q5 0 11 -0.5t12 -1.5q7 -1 13 -1.5t12 -0.5h154q6 0 7 -4t1 -7q0 -9 -4.5 -12t-27.5 -9q-32 -9 -44 -22t-13 -47l-6 -319q-2 -107 -64 -156.5t-188 -49.5q-31 0 -79 6
t-92.5 25.5t-76 56.5t-30.5 99zM377 823h70l123 -169h-42l-116 103l-116 -103h-42z" />
    <glyph glyph-name="Udieresis" unicode="&#xdc;" horiz-adv-x="778" 
d="M125 525q1 23 -5 34t-26 11q-23 0 -36 1t-19 3t-7 5.5t-1 7.5q0 15 10.5 18t24.5 3h245q14 0 17.5 -4t3.5 -14q0 -8 -5.5 -10t-28.5 -4q-18 0 -29 -2t-17 -11t-8 -26.5t-2 -49.5l-4 -267q-1 -63 11 -102t35 -61t56.5 -29.5t75.5 -7.5q38 0 73 7.5t62.5 25.5t44 46.5
t17.5 70.5l5 337q0 14 -1 24t-8 18t-20.5 14.5t-37.5 12.5q-23 6 -29.5 9t-6.5 10q0 8 4 12.5t15 4.5q5 0 11 -0.5t12 -1.5q7 -1 13 -1.5t12 -0.5h154q6 0 7 -4t1 -7q0 -9 -4.5 -12t-27.5 -9q-32 -9 -44 -22t-13 -47l-6 -319q-2 -107 -64 -156.5t-188 -49.5q-31 0 -79 6
t-92.5 25.5t-76 56.5t-30.5 99zM310 774q21 0 37 -16t16 -37t-16 -37t-37 -16q-20 0 -36 16.5t-16 36.5t16 36.5t36 16.5zM514 774q21 0 37 -16t16 -37t-16 -37t-37 -16t-37 16t-16 37t16 37t37 16z" />
    <glyph glyph-name="Yacute" unicode="&#xdd;" horiz-adv-x="722" 
d="M288 211q0 32 -11 57.5t-34 58.5l-71 104q-32 47 -53 75t-35 43t-22.5 20t-16.5 7l-25.5 7t-10.5 13q0 11 6.5 13.5t30.5 2.5q9 0 23.5 -0.5t32 -1.5t35.5 -1.5t34 -0.5q18 0 38 0.5t37 1.5t28.5 1.5t14.5 0.5q11 0 14.5 -4.5t3.5 -10.5q0 -14 -9 -17.5t-28 -3.5
q-16 0 -26.5 -1.5t-10.5 -10.5q0 -11 5 -21t13 -22l109 -164l14.5 -18.5t16.5 -10.5q7 0 12.5 5.5t9.5 10.5l132 186q12 16 12 31q0 8 -5.5 10.5t-27.5 4.5q-29 2 -38 7t-9 13q0 7 6.5 11.5t38.5 4.5q24 0 47.5 -2t47.5 -2q17 0 33.5 2t33.5 2q16 0 16 -16q0 -9 -7.5 -12
t-30.5 -8q-6 -1 -20.5 -13.5t-29.5 -27l-27 -27t-14 -15.5l-124 -153q-15 -18 -23 -31t-12 -27t-5 -33t-1 -51v-73q0 -27 2 -45t9.5 -28.5t23.5 -15t43 -4.5q11 0 18 -4t7 -19q0 -10 -14.5 -11.5t-25.5 -1.5q-34 0 -68.5 2t-66.5 2t-66.5 -2t-70.5 -2q-6 0 -7.5 4.5
t-1.5 9.5q0 10 15.5 15.5t31.5 6.5q14 1 23.5 4t16.5 12t10 24.5t3 41.5v97zM285 654q81 82 123 129t63 47q17 0 30 -11.5t13 -29.5q0 -13 -14 -25.5t-39 -28l-58.5 -35t-71.5 -46.5h-46z" />
    <glyph glyph-name="Thorn" unicode="&#xde;" horiz-adv-x="611" 
d="M114 520q0 31 -8.5 42.5t-39.5 13.5q-19 1 -24.5 5t-5.5 13t5.5 13.5t22.5 4.5q18 0 40.5 -2t59.5 -2q30 0 49 0.5t32 1.5t23 1.5t22 0.5q18 0 23 -2.5t5 -9.5t-7 -11.5t-24 -6.5q-19 -1 -30 -3.5t-16.5 -7.5t-7 -14t-1.5 -23v-34h84q69 0 116 -14.5t76 -39t41.5 -57
t12.5 -67.5q0 -44 -17 -78t-44.5 -57.5t-63.5 -35.5t-74 -12q-27 0 -47.5 4.5t-35.5 10t-24 10t-14 4.5h-3t-7 1v-75q0 -19 3.5 -30t10 -17t17 -9t23.5 -6q16 -4 24.5 -8t8.5 -16q0 -7 -3.5 -9.5t-19.5 -2.5q-20 0 -57.5 2t-92.5 2q-43 0 -69 -2t-47 -2q-11 0 -14 5t-3 14
q0 11 7 13t37 4q13 1 23.5 2.5t18 9t11.5 23.5t4 44v409zM232 208q0 -9 12 -13t47 -4q32 0 59 6.5t46 22.5t29.5 43t10.5 68q0 26 -8.5 51t-25.5 44t-42 30.5t-59 11.5q-19 0 -32 -1.5t-21.5 -7.5t-12 -17.5t-3.5 -31.5v-202z" />
    <glyph glyph-name="germandbls" unicode="&#xdf;" horiz-adv-x="778" 
d="M32 28q0 54 4.5 77t14.5 23q6 0 11 -18t18 -39t38 -39t69 -18q49 0 75 20t26 56q0 22 -17.5 36t-43.5 26t-57 24.5t-57 32t-43.5 48t-17.5 71.5q0 29 12 52.5t33 41t50.5 27t64.5 9.5q56 0 80.5 -10t28.5 -22q14 -44 8 -68t-16 -24q-11 0 -17.5 14.5t-16 32.5t-26 32.5
t-47.5 14.5q-45 0 -68.5 -20.5t-23.5 -46.5t18 -41.5t45 -27t58 -23t58 -29.5t45 -45t18 -71q0 -69 -42 -104.5t-134 -35.5q-66 0 -107 13.5t-41 30.5zM421 28q0 54 4.5 77t14.5 23q6 0 11 -18t18 -39t38 -39t69 -18q49 0 75 20t26 56q0 22 -17.5 36t-43.5 26t-57 24.5
t-57 32t-43.5 48t-17.5 71.5q0 29 12 52.5t33 41t50.5 27t64.5 9.5q56 0 80.5 -10t28.5 -22q14 -44 8 -68t-16 -24q-11 0 -17.5 14.5t-16 32.5t-26 32.5t-47.5 14.5q-45 0 -68.5 -20.5t-23.5 -46.5t18 -41.5t45 -27t58 -23t58 -29.5t45 -45t18 -71q0 -69 -42 -104.5
t-134 -35.5q-66 0 -107 13.5t-41 30.5z" />
    <glyph glyph-name="agrave" unicode="&#xe0;" 
d="M261 186q9 0 12 1.5t3 4.5q0 8 -4 19l-31 91q-2 7 -5.5 10.5t-6.5 3.5q-7 0 -14 -16l-38 -87q-2 -6 -4.5 -11t-2.5 -8q0 -8 16 -8h75zM168 146q-7 0 -11.5 -3t-10.5 -14q-3 -5 -7.5 -16.5l-9 -24t-8 -24.5t-3.5 -18q0 -12 10.5 -17t19.5 -7q11 -2 20.5 -4t9.5 -13
q0 -9 -20 -9q-15 0 -28 2t-37 2q-26 0 -40.5 -2t-28.5 -2q-20 0 -20 8t10 11.5t21 9.5q12 6 23 22t16 27l177 371q6 13 16 13q4 0 7.5 -5t5.5 -10l147 -377q9 -23 20.5 -33t22 -14t17.5 -5.5t7 -8.5q0 -9 -12 -9q-24 0 -48.5 2t-48.5 2t-48.5 -2t-48.5 -2q-15 0 -19.5 3
t-4.5 8q0 8 9 10.5t20 4.5t20 6.5t9 13.5q0 7 -7 32.5t-17 51.5q-5 12 -9 16t-11 4h-110zM280 514q-38 27 -71.5 46.5l-58 35t-39 28t-14.5 25.5q0 18 13 29.5t30 11.5q21 0 63 -47t123 -129h-46z" />
    <glyph glyph-name="aacute" unicode="&#xe1;" 
d="M261 186q9 0 12 1.5t3 4.5q0 8 -4 19l-31 91q-2 7 -5.5 10.5t-6.5 3.5q-7 0 -14 -16l-38 -87q-2 -6 -4.5 -11t-2.5 -8q0 -8 16 -8h75zM168 146q-7 0 -11.5 -3t-10.5 -14q-3 -5 -7.5 -16.5l-9 -24t-8 -24.5t-3.5 -18q0 -12 10.5 -17t19.5 -7q11 -2 20.5 -4t9.5 -13
q0 -9 -20 -9q-15 0 -28 2t-37 2q-26 0 -40.5 -2t-28.5 -2q-20 0 -20 8t10 11.5t21 9.5q12 6 23 22t16 27l177 371q6 13 16 13q4 0 7.5 -5t5.5 -10l147 -377q9 -23 20.5 -33t22 -14t17.5 -5.5t7 -8.5q0 -9 -12 -9q-24 0 -48.5 2t-48.5 2t-48.5 -2t-48.5 -2q-15 0 -19.5 3
t-4.5 8q0 8 9 10.5t20 4.5t20 6.5t9 13.5q0 7 -7 32.5t-17 51.5q-5 12 -9 16t-11 4h-110zM174 514q81 82 123 129t63 47q17 0 30 -11.5t13 -29.5q0 -13 -14 -25.5t-39 -28l-58.5 -35t-71.5 -46.5h-46z" />
    <glyph glyph-name="acircumflex" unicode="&#xe2;" 
d="M261 186q9 0 12 1.5t3 4.5q0 8 -4 19l-31 91q-2 7 -5.5 10.5t-6.5 3.5q-7 0 -14 -16l-38 -87q-2 -6 -4.5 -11t-2.5 -8q0 -8 16 -8h75zM168 146q-7 0 -11.5 -3t-10.5 -14q-3 -5 -7.5 -16.5l-9 -24t-8 -24.5t-3.5 -18q0 -12 10.5 -17t19.5 -7q11 -2 20.5 -4t9.5 -13
q0 -9 -20 -9q-15 0 -28 2t-37 2q-26 0 -40.5 -2t-28.5 -2q-20 0 -20 8t10 11.5t21 9.5q12 6 23 22t16 27l177 371q6 13 16 13q4 0 7.5 -5t5.5 -10l147 -377q9 -23 20.5 -33t22 -14t17.5 -5.5t7 -8.5q0 -9 -12 -9q-24 0 -48.5 2t-48.5 2t-48.5 -2t-48.5 -2q-15 0 -19.5 3
t-4.5 8q0 8 9 10.5t20 4.5t20 6.5t9 13.5q0 7 -7 32.5t-17 51.5q-5 12 -9 16t-11 4h-110zM215 683h70l123 -169h-42l-116 103l-116 -103h-42z" />
    <glyph glyph-name="atilde" unicode="&#xe3;" 
d="M261 186q9 0 12 1.5t3 4.5q0 8 -4 19l-31 91q-2 7 -5.5 10.5t-6.5 3.5q-7 0 -14 -16l-38 -87q-2 -6 -4.5 -11t-2.5 -8q0 -8 16 -8h75zM168 146q-7 0 -11.5 -3t-10.5 -14q-3 -5 -7.5 -16.5l-9 -24t-8 -24.5t-3.5 -18q0 -12 10.5 -17t19.5 -7q11 -2 20.5 -4t9.5 -13
q0 -9 -20 -9q-15 0 -28 2t-37 2q-26 0 -40.5 -2t-28.5 -2q-20 0 -20 8t10 11.5t21 9.5q12 6 23 22t16 27l177 371q6 13 16 13q4 0 7.5 -5t5.5 -10l147 -377q9 -23 20.5 -33t22 -14t17.5 -5.5t7 -8.5q0 -9 -12 -9q-24 0 -48.5 2t-48.5 2t-48.5 -2t-48.5 -2q-15 0 -19.5 3
t-4.5 8q0 8 9 10.5t20 4.5t20 6.5t9 13.5q0 7 -7 32.5t-17 51.5q-5 12 -9 16t-11 4h-110zM421 651l-9 -29t-18 -37.5t-32.5 -32t-53.5 -13.5q-20 0 -39.5 7.5t-38.5 16.5l-34 16.5t-29 7.5q-19 0 -29.5 -7.5t-15.5 -17t-6.5 -17t-3.5 -7.5h-32q8 45 35.5 77.5t75.5 32.5
q20 0 38.5 -7.5l36.5 -15.5q19 -9 37 -16.5t35 -7.5q15 0 24 8t14.5 17t7.5 17t4 8h33z" />
    <glyph glyph-name="adieresis" unicode="&#xe4;" 
d="M261 186q9 0 12 1.5t3 4.5q0 8 -4 19l-31 91q-2 7 -5.5 10.5t-6.5 3.5q-7 0 -14 -16l-38 -87q-2 -6 -4.5 -11t-2.5 -8q0 -8 16 -8h75zM168 146q-7 0 -11.5 -3t-10.5 -14q-3 -5 -7.5 -16.5l-9 -24t-8 -24.5t-3.5 -18q0 -12 10.5 -17t19.5 -7q11 -2 20.5 -4t9.5 -13
q0 -9 -20 -9q-15 0 -28 2t-37 2q-26 0 -40.5 -2t-28.5 -2q-20 0 -20 8t10 11.5t21 9.5q12 6 23 22t16 27l177 371q6 13 16 13q4 0 7.5 -5t5.5 -10l147 -377q9 -23 20.5 -33t22 -14t17.5 -5.5t7 -8.5q0 -9 -12 -9q-24 0 -48.5 2t-48.5 2t-48.5 -2t-48.5 -2q-15 0 -19.5 3
t-4.5 8q0 8 9 10.5t20 4.5t20 6.5t9 13.5q0 7 -7 32.5t-17 51.5q-5 12 -9 16t-11 4h-110zM148 634q21 0 37 -16t16 -37t-16 -37t-37 -16q-20 0 -36 16.5t-16 36.5t16 36.5t36 16.5zM352 634q21 0 37 -16t16 -37t-16 -37t-37 -16t-37 16t-16 37t16 37t37 16z" />
    <glyph glyph-name="aring" unicode="&#xe5;" 
d="M261 186q9 0 12 1.5t3 4.5q0 8 -4 19l-31 91q-2 7 -5.5 10.5t-6.5 3.5q-7 0 -14 -16l-38 -87q-2 -6 -4.5 -11t-2.5 -8q0 -8 16 -8h75zM168 146q-7 0 -11.5 -3t-10.5 -14q-3 -5 -7.5 -16.5l-9 -24t-8 -24.5t-3.5 -18q0 -12 10.5 -17t19.5 -7q11 -2 20.5 -4t9.5 -13
q0 -9 -20 -9q-15 0 -28 2t-37 2q-26 0 -40.5 -2t-28.5 -2q-20 0 -20 8t10 11.5t21 9.5q12 6 23 22t16 27l177 371q6 13 16 13q4 0 7.5 -5t5.5 -10l147 -377q9 -23 20.5 -33t22 -14t17.5 -5.5t7 -8.5q0 -9 -12 -9q-24 0 -48.5 2t-48.5 2t-48.5 -2t-48.5 -2q-15 0 -19.5 3
t-4.5 8q0 8 9 10.5t20 4.5t20 6.5t9 13.5q0 7 -7 32.5t-17 51.5q-5 12 -9 16t-11 4h-110zM278 715q20 0 38.5 -8.5t32.5 -22.5t22.5 -32.5t8.5 -38.5t-8.5 -38.5t-22.5 -32.5t-32.5 -22.5t-38.5 -8.5t-38.5 8.5t-32.5 22.5t-22.5 32.5t-8.5 38.5t8.5 38.5t22.5 32.5
t32.5 22.5t38.5 8.5zM278 675q-24 0 -43 -19t-19 -43t19 -43t43 -19t43 19t19 43t-19 43t-43 19z" />
    <glyph glyph-name="ae" unicode="&#xe6;" horiz-adv-x="722" 
d="M352 402h-2l-101 -155q-8 -11 -10.5 -17t-2.5 -8q0 -4 11 -4h105v184zM292 366q8 12 12 20t4 16t-10.5 11t-23.5 5q-14 2 -26 4t-12 11q0 13 14 13q50 0 99 -2t103 -2q32 0 63 0.5t57 1.5t45 1.5t27 0.5t11 -11.5t3 -55.5q0 -23 -1.5 -33t-9.5 -10q-10 0 -15.5 12.5
t-15.5 27.5t-28.5 27.5t-55.5 12.5q-25 0 -40 -2t-22.5 -6.5t-9.5 -11.5t-2 -18v-100q0 -16 12.5 -22t55.5 -6q23 0 35 9t19.5 19.5t12.5 19t15 8.5q5 0 7.5 -4t2.5 -9t-4 -31.5t-4 -81.5q0 -9 1 -15t1 -10q0 -7 -3.5 -9t-7.5 -2q-14 0 -15 11.5t-6 26.5q-5 14 -18 26
t-36 12q-42 0 -55 -4.5t-13 -21.5v-136q0 -17 20.5 -24.5t47.5 -7.5q32 0 55.5 13.5t40 29.5t26.5 29.5t16 13.5q12 0 12 -12q0 -4 -4 -21t-10 -35.5t-12.5 -33t-11.5 -14.5q-14 0 -34 0.5t-42.5 1.5t-46 1.5t-43.5 0.5q-19 0 -43.5 -0.5t-48.5 -1.5t-45 -1.5t-33 -0.5
q-24 0 -24 12q0 14 11.5 16.5t25.5 4t25.5 6.5t11.5 23v111q0 13 -16 13h-102q-14 0 -21.5 -4.5t-14.5 -15.5l-52 -79q-9 -14 -14.5 -25t-5.5 -17q0 -10 9.5 -12.5t20.5 -4t20.5 -4.5t9.5 -12q0 -12 -14 -12q-18 0 -36.5 2t-36.5 2t-36.5 -2t-36.5 -2q-10 0 -10 10
q0 7 4 8.5l11.5 4.5t18 10t22.5 25z" />
    <glyph glyph-name="ccedilla" unicode="&#xe7;" 
d="M244 -10q-54 9 -94 30t-66 52t-39 69t-13 80q0 48 19.5 91.5t55 75.5t85 51t110.5 19q16 0 36.5 -1.5t41 -4.5t37.5 -7.5t25 -10.5q4 -3 7 -15.5t5 -26t3 -25.5t1 -14q0 -9 -11 -9q-4 0 -14.5 14t-28 30.5t-42.5 30t-58 13.5q-42 0 -72.5 -18.5t-50.5 -48t-29.5 -67
t-9.5 -75.5t9.5 -75.5t29.5 -67t50.5 -48t72.5 -18.5q32 0 56.5 15t42.5 33t29.5 33t17.5 15q8 0 10 -4.5t2 -7.5q0 -7 -2 -18t-5 -23t-6.5 -23t-6.5 -17q-4 -8 -18.5 -14t-33 -10.5t-38.5 -6.5t-36 -2q-10 0 -19 0.5t-18 1.5l-22 -50q11 2 18 3.5t17 1.5q7 0 20.5 -2.5
t26.5 -10t22.5 -21.5t9.5 -38q0 -27 -13.5 -44t-32.5 -26t-38.5 -12t-31.5 -3q-26 0 -50 5t-44 13l14 31q1 1 2.5 -0.5t7.5 -3.5t17.5 -4.5t31.5 -2.5q31 0 45 10.5t14 28.5q0 22 -12 31t-35 9q-14 0 -20.5 -2.5t-7.5 -1.5l-13 6z" />
    <glyph glyph-name="egrave" unicode="&#xe8;" horiz-adv-x="444" 
d="M200 67q0 -20 11 -30.5t46 -10.5q39 0 63 13.5t38.5 30t23 30t15.5 13.5q6 0 9.5 -4t3.5 -9q0 -6 -5 -25l-15 -55q-4 -14 -11.5 -19t-26.5 -5q-38 0 -76 2t-76 2t-76 -2t-76 -2q-28 0 -28 12t11.5 14t25.5 4t25.5 8t11.5 22v330q0 20 -7 24t-25 6q-12 2 -22 4t-10 13
q0 5 6 9t22 4q12 0 52 -2t103 -2q41 0 81.5 2t81.5 2q3 0 6 -2.5t5 -11t3 -26t1 -47.5q0 -17 -3 -21t-7 -4q-6 0 -12.5 13t-19 28t-34 28t-59.5 13q-36 0 -46 -6.5t-10 -22.5v-109q0 -17 5 -22.5t21 -5.5h26q22 0 35.5 9t23 19.5t16.5 19t14 8.5q4 0 6.5 -3t2.5 -13
q0 -19 -2.5 -34.5t-3.5 -35.5q-2 -30 0 -44t2 -19q0 -13 -12 -13q-7 0 -12 12t-12.5 26t-22 26t-41.5 12h-23q-12 0 -17.5 -6t-5.5 -23v-124zM271 514q-38 27 -71.5 46.5l-58 35t-39 28t-14.5 25.5q0 18 13 29.5t30 11.5q21 0 63 -47t123 -129h-46z" />
    <glyph glyph-name="eacute" unicode="&#xe9;" horiz-adv-x="444" 
d="M200 67q0 -20 11 -30.5t46 -10.5q39 0 63 13.5t38.5 30t23 30t15.5 13.5q6 0 9.5 -4t3.5 -9q0 -6 -5 -25l-15 -55q-4 -14 -11.5 -19t-26.5 -5q-38 0 -76 2t-76 2t-76 -2t-76 -2q-28 0 -28 12t11.5 14t25.5 4t25.5 8t11.5 22v330q0 20 -7 24t-25 6q-12 2 -22 4t-10 13
q0 5 6 9t22 4q12 0 52 -2t103 -2q41 0 81.5 2t81.5 2q3 0 6 -2.5t5 -11t3 -26t1 -47.5q0 -17 -3 -21t-7 -4q-6 0 -12.5 13t-19 28t-34 28t-59.5 13q-36 0 -46 -6.5t-10 -22.5v-109q0 -17 5 -22.5t21 -5.5h26q22 0 35.5 9t23 19.5t16.5 19t14 8.5q4 0 6.5 -3t2.5 -13
q0 -19 -2.5 -34.5t-3.5 -35.5q-2 -30 0 -44t2 -19q0 -13 -12 -13q-7 0 -12 12t-12.5 26t-22 26t-41.5 12h-23q-12 0 -17.5 -6t-5.5 -23v-124zM165 514q81 82 123 129t63 47q17 0 30 -11.5t13 -29.5q0 -13 -14 -25.5t-39 -28l-58.5 -35t-71.5 -46.5h-46z" />
    <glyph glyph-name="ecircumflex" unicode="&#xea;" horiz-adv-x="444" 
d="M200 67q0 -20 11 -30.5t46 -10.5q39 0 63 13.5t38.5 30t23 30t15.5 13.5q6 0 9.5 -4t3.5 -9q0 -6 -5 -25l-15 -55q-4 -14 -11.5 -19t-26.5 -5q-38 0 -76 2t-76 2t-76 -2t-76 -2q-28 0 -28 12t11.5 14t25.5 4t25.5 8t11.5 22v330q0 20 -7 24t-25 6q-12 2 -22 4t-10 13
q0 5 6 9t22 4q12 0 52 -2t103 -2q41 0 81.5 2t81.5 2q3 0 6 -2.5t5 -11t3 -26t1 -47.5q0 -17 -3 -21t-7 -4q-6 0 -12.5 13t-19 28t-34 28t-59.5 13q-36 0 -46 -6.5t-10 -22.5v-109q0 -17 5 -22.5t21 -5.5h26q22 0 35.5 9t23 19.5t16.5 19t14 8.5q4 0 6.5 -3t2.5 -13
q0 -19 -2.5 -34.5t-3.5 -35.5q-2 -30 0 -44t2 -19q0 -13 -12 -13q-7 0 -12 12t-12.5 26t-22 26t-41.5 12h-23q-12 0 -17.5 -6t-5.5 -23v-124zM206 683h70l123 -169h-42l-116 103l-116 -103h-42z" />
    <glyph glyph-name="edieresis" unicode="&#xeb;" horiz-adv-x="444" 
d="M200 67q0 -20 11 -30.5t46 -10.5q39 0 63 13.5t38.5 30t23 30t15.5 13.5q6 0 9.5 -4t3.5 -9q0 -6 -5 -25l-15 -55q-4 -14 -11.5 -19t-26.5 -5q-38 0 -76 2t-76 2t-76 -2t-76 -2q-28 0 -28 12t11.5 14t25.5 4t25.5 8t11.5 22v330q0 20 -7 24t-25 6q-12 2 -22 4t-10 13
q0 5 6 9t22 4q12 0 52 -2t103 -2q41 0 81.5 2t81.5 2q3 0 6 -2.5t5 -11t3 -26t1 -47.5q0 -17 -3 -21t-7 -4q-6 0 -12.5 13t-19 28t-34 28t-59.5 13q-36 0 -46 -6.5t-10 -22.5v-109q0 -17 5 -22.5t21 -5.5h26q22 0 35.5 9t23 19.5t16.5 19t14 8.5q4 0 6.5 -3t2.5 -13
q0 -19 -2.5 -34.5t-3.5 -35.5q-2 -30 0 -44t2 -19q0 -13 -12 -13q-7 0 -12 12t-12.5 26t-22 26t-41.5 12h-23q-12 0 -17.5 -6t-5.5 -23v-124zM139 634q21 0 37 -16t16 -37t-16 -37t-37 -16q-20 0 -36 16.5t-16 36.5t16 36.5t36 16.5zM343 634q21 0 37 -16t16 -37t-16 -37
t-37 -16t-37 16t-16 37t16 37t37 16z" />
    <glyph glyph-name="igrave" unicode="&#xec;" horiz-adv-x="278" 
d="M90 390q0 18 -9.5 21t-21.5 5q-11 2 -21 2.5t-10 11.5q0 16 22 16q23 0 46.5 -2t46.5 -2t46.5 2t46.5 2q16 0 16 -14q0 -11 -9.5 -12.5l-21.5 -3.5q-11 -2 -21 -5t-10 -21v-336q0 -17 10.5 -21.5t23.5 -6.5t23.5 -4t10.5 -12q0 -8 -3.5 -11t-8.5 -3q-26 0 -52 2t-52 2
t-52 -2t-52 -2q-9 0 -14.5 3.5t-5.5 7.5q0 11 11 14t25 5t25 8t11 20v336zM169 514q-38 27 -71.5 46.5l-58 35t-39 28t-14.5 25.5q0 18 13 29.5t30 11.5q21 0 63 -47t123 -129h-46z" />
    <glyph glyph-name="iacute" unicode="&#xed;" horiz-adv-x="278" 
d="M90 390q0 18 -9.5 21t-21.5 5q-11 2 -21 2.5t-10 11.5q0 16 22 16q23 0 46.5 -2t46.5 -2t46.5 2t46.5 2q16 0 16 -14q0 -11 -9.5 -12.5l-21.5 -3.5q-11 -2 -21 -5t-10 -21v-336q0 -17 10.5 -21.5t23.5 -6.5t23.5 -4t10.5 -12q0 -8 -3.5 -11t-8.5 -3q-26 0 -52 2t-52 2
t-52 -2t-52 -2q-9 0 -14.5 3.5t-5.5 7.5q0 11 11 14t25 5t25 8t11 20v336zM63 514q81 82 123 129t63 47q17 0 30 -11.5t13 -29.5q0 -13 -14 -25.5t-39 -28l-58.5 -35t-71.5 -46.5h-46z" />
    <glyph glyph-name="icircumflex" unicode="&#xee;" horiz-adv-x="278" 
d="M90 390q0 18 -9.5 21t-21.5 5q-11 2 -21 2.5t-10 11.5q0 16 22 16q23 0 46.5 -2t46.5 -2t46.5 2t46.5 2q16 0 16 -14q0 -11 -9.5 -12.5l-21.5 -3.5q-11 -2 -21 -5t-10 -21v-336q0 -17 10.5 -21.5t23.5 -6.5t23.5 -4t10.5 -12q0 -8 -3.5 -11t-8.5 -3q-26 0 -52 2t-52 2
t-52 -2t-52 -2q-9 0 -14.5 3.5t-5.5 7.5q0 11 11 14t25 5t25 8t11 20v336zM104 683h70l123 -169h-42l-116 103l-116 -103h-42z" />
    <glyph glyph-name="idieresis" unicode="&#xef;" horiz-adv-x="278" 
d="M90 390q0 18 -9.5 21t-21.5 5q-11 2 -21 2.5t-10 11.5q0 16 22 16q23 0 46.5 -2t46.5 -2t46.5 2t46.5 2q16 0 16 -14q0 -11 -9.5 -12.5l-21.5 -3.5q-11 -2 -21 -5t-10 -21v-336q0 -17 10.5 -21.5t23.5 -6.5t23.5 -4t10.5 -12q0 -8 -3.5 -11t-8.5 -3q-26 0 -52 2t-52 2
t-52 -2t-52 -2q-9 0 -14.5 3.5t-5.5 7.5q0 11 11 14t25 5t25 8t11 20v336zM37 634q21 0 37 -16t16 -37t-16 -37t-37 -16q-20 0 -36 16.5t-16 36.5t16 36.5t36 16.5zM241 634q21 0 37 -16t16 -37t-16 -37t-37 -16t-37 16t-16 37t16 37t37 16z" />
    <glyph glyph-name="eth" unicode="&#xf0;" horiz-adv-x="611" 
d="M106 395q0 11 -12 13t-26 4t-26 4.5t-12 11.5t9.5 12.5t20.5 3.5q14 0 45.5 0.5t68.5 1.5t74 1.5t64 0.5q56 0 104 -19.5t83.5 -52t56 -73.5t20.5 -85t-19.5 -84.5t-54 -71t-81.5 -48.5t-103 -18q-36 0 -81 2.5t-81 0.5q-23 -2 -43 -2.5t-35 -0.5q-36 0 -36 14
q0 10 10 11.5t22 4.5t22 12.5t10 35.5v134h-52q-10 0 -17 4.5t-7 14.5t7 14t17 3h52v151zM206 244h150q10 0 17 -4t7 -14t-7 -14t-17 -4h-150v-108q0 -44 21 -59t66 -15q34 0 65.5 14t55.5 38.5t38 57.5t14 70q0 43 -13.5 82t-40 69t-65.5 47.5t-91 17.5q-29 0 -39.5 -5.5
t-10.5 -28.5v-144z" />
    <glyph glyph-name="ntilde" unicode="&#xf1;" horiz-adv-x="611" 
d="M100 391q0 17 -12.5 20t-27.5 5t-27.5 3t-12.5 11q0 16 20 16q17 0 34.5 -2t34.5 -2t34.5 2t34.5 2q8 0 13 -2.5t10 -7.5l189 -205l56 -60.5t26 -22.5q5 0 6.5 7t1.5 15v205q0 24 -12.5 31.5t-28.5 9.5q-15 2 -28 3t-13 13q0 14 18 14q20 0 40.5 -2t40.5 -2t40.5 2
t40.5 2q8 0 12 -4.5t4 -9.5q0 -11 -11.5 -12.5l-25.5 -3.5t-25.5 -11t-11.5 -36v-363q0 -36 -14 -36q-6 0 -10 3t-10 10l-331 350q-9 11 -15 11q-7 0 -6 -12l4 -172q1 -34 1.5 -56t2 -35.5t4.5 -20.5t8 -10q9 -7 19 -8.5l24 -3.5q20 -2 27.5 -5t7.5 -13q0 -12 -17 -12
q-23 0 -45.5 2t-45.5 2t-45 -2t-41 -2q-14 0 -19 3t-5 10q0 10 9 12.5t18 3.5q11 2 22.5 3.5t20.5 9.5q4 3 7 17t5 34.5t3 46t1 50.5v205zM477 651l-9 -29t-18 -37.5t-32.5 -32t-53.5 -13.5q-20 0 -39.5 7.5t-38.5 16.5l-34 16.5t-29 7.5q-19 0 -29.5 -7.5t-15.5 -17
t-6.5 -17t-3.5 -7.5h-32q8 45 35.5 77.5t75.5 32.5q20 0 38.5 -7.5l36.5 -15.5q19 -9 37 -16.5t35 -7.5q15 0 24 8t14.5 17t7.5 17t4 8h33z" />
    <glyph glyph-name="ograve" unicode="&#xf2;" horiz-adv-x="556" 
d="M20 221q0 46 18.5 89t52.5 76t81 52.5t104 19.5t104 -19.5t81 -52.5t52.5 -76t18.5 -89t-18.5 -89t-52.5 -76t-81 -52.5t-104 -19.5t-104 19.5t-81 52.5t-52.5 76t-18.5 89zM130 221q0 -103 39 -155t107 -52t107 52t39 155t-39 155t-107 52t-107 -52t-39 -155zM308 514
q-38 27 -71.5 46.5l-58 35t-39 28t-14.5 25.5q0 18 13 29.5t30 11.5q21 0 63 -47t123 -129h-46z" />
    <glyph glyph-name="oacute" unicode="&#xf3;" horiz-adv-x="556" 
d="M20 221q0 46 18.5 89t52.5 76t81 52.5t104 19.5t104 -19.5t81 -52.5t52.5 -76t18.5 -89t-18.5 -89t-52.5 -76t-81 -52.5t-104 -19.5t-104 19.5t-81 52.5t-52.5 76t-18.5 89zM130 221q0 -103 39 -155t107 -52t107 52t39 155t-39 155t-107 52t-107 -52t-39 -155zM202 514
q81 82 123 129t63 47q17 0 30 -11.5t13 -29.5q0 -13 -14 -25.5t-39 -28l-58.5 -35t-71.5 -46.5h-46z" />
    <glyph glyph-name="ocircumflex" unicode="&#xf4;" horiz-adv-x="556" 
d="M20 221q0 46 18.5 89t52.5 76t81 52.5t104 19.5t104 -19.5t81 -52.5t52.5 -76t18.5 -89t-18.5 -89t-52.5 -76t-81 -52.5t-104 -19.5t-104 19.5t-81 52.5t-52.5 76t-18.5 89zM130 221q0 -103 39 -155t107 -52t107 52t39 155t-39 155t-107 52t-107 -52t-39 -155zM243 683
h70l123 -169h-42l-116 103l-116 -103h-42z" />
    <glyph glyph-name="otilde" unicode="&#xf5;" horiz-adv-x="556" 
d="M20 221q0 46 18.5 89t52.5 76t81 52.5t104 19.5t104 -19.5t81 -52.5t52.5 -76t18.5 -89t-18.5 -89t-52.5 -76t-81 -52.5t-104 -19.5t-104 19.5t-81 52.5t-52.5 76t-18.5 89zM130 221q0 -103 39 -155t107 -52t107 52t39 155t-39 155t-107 52t-107 -52t-39 -155zM449 651
l-9 -29t-18 -37.5t-32.5 -32t-53.5 -13.5q-20 0 -39.5 7.5t-38.5 16.5l-34 16.5t-29 7.5q-19 0 -29.5 -7.5t-15.5 -17t-6.5 -17t-3.5 -7.5h-32q8 45 35.5 77.5t75.5 32.5q20 0 38.5 -7.5l36.5 -15.5q19 -9 37 -16.5t35 -7.5q15 0 24 8t14.5 17t7.5 17t4 8h33z" />
    <glyph glyph-name="odieresis" unicode="&#xf6;" horiz-adv-x="556" 
d="M20 221q0 46 18.5 89t52.5 76t81 52.5t104 19.5t104 -19.5t81 -52.5t52.5 -76t18.5 -89t-18.5 -89t-52.5 -76t-81 -52.5t-104 -19.5t-104 19.5t-81 52.5t-52.5 76t-18.5 89zM130 221q0 -103 39 -155t107 -52t107 52t39 155t-39 155t-107 52t-107 -52t-39 -155zM176 634
q21 0 37 -16t16 -37t-16 -37t-37 -16q-20 0 -36 16.5t-16 36.5t16 36.5t36 16.5zM380 634q21 0 37 -16t16 -37t-16 -37t-37 -16t-37 16t-16 37t16 37t37 16z" />
    <glyph glyph-name="divide" unicode="&#xf7;" horiz-adv-x="600" 
d="M109 163v56h382v-56h-382zM255 349q0 19 13.5 32t31.5 13q19 0 32.5 -13.5t13.5 -31.5q0 -17 -13.5 -31.5t-31.5 -14.5q-19 0 -32.5 13.5t-13.5 32.5zM255 34q0 19 13.5 32t31.5 13q19 0 32.5 -13.5t13.5 -31.5q0 -17 -13.5 -31.5t-31.5 -14.5q-19 0 -32.5 14t-13.5 32z
" />
    <glyph glyph-name="oslash" unicode="&#xf8;" horiz-adv-x="556" 
d="M355 403q-32 25 -79 25q-68 0 -107 -52t-39 -155q0 -78 25 -130zM175 59q36 -45 101 -45q68 0 107 52t39 155q0 53 -10.5 92t-30.5 65zM118 34q-46 33 -72 82.5t-26 104.5q0 46 18.5 89t52.5 76t81 52.5t104 19.5q55 0 102 -19l60 93h42l-70 -109q57 -32 89.5 -86
t32.5 -116q0 -46 -18.5 -89t-52.5 -76t-81 -52.5t-104 -19.5q-36 0 -68.5 8.5t-59.5 23.5l-76 -118h-42z" />
    <glyph glyph-name="ugrave" unicode="&#xf9;" horiz-adv-x="611" 
d="M470 363q0 30 -9 40.5t-27 12.5q-14 2 -25 3t-11 12q0 15 20 15q17 0 32.5 -2t36.5 -2q25 0 39.5 2t29.5 2q16 0 16 -14q0 -9 -7 -12.5t-25 -3.5q-11 0 -22.5 -7t-11.5 -32v-203q0 -53 -14 -89.5t-39 -59t-59.5 -32t-75.5 -9.5q-103 0 -158.5 30t-55.5 90v280
q0 20 -10.5 25t-23.5 7t-23.5 2.5t-10.5 9.5q0 11 5 14.5t15 3.5q17 0 40 -2t62 -2q30 0 58 2t42 2t19 -3.5t5 -10.5q0 -16 -22 -16q-29 0 -42.5 -8.5t-13.5 -43.5v-234q0 -62 30.5 -86t93.5 -24q34 0 60.5 8t44.5 26.5t27.5 50t9.5 77.5v181zM322 514q-38 27 -71.5 46.5
l-58 35t-39 28t-14.5 25.5q0 18 13 29.5t30 11.5q21 0 63 -47t123 -129h-46z" />
    <glyph glyph-name="uacute" unicode="&#xfa;" horiz-adv-x="611" 
d="M470 363q0 30 -9 40.5t-27 12.5q-14 2 -25 3t-11 12q0 15 20 15q17 0 32.5 -2t36.5 -2q25 0 39.5 2t29.5 2q16 0 16 -14q0 -9 -7 -12.5t-25 -3.5q-11 0 -22.5 -7t-11.5 -32v-203q0 -53 -14 -89.5t-39 -59t-59.5 -32t-75.5 -9.5q-103 0 -158.5 30t-55.5 90v280
q0 20 -10.5 25t-23.5 7t-23.5 2.5t-10.5 9.5q0 11 5 14.5t15 3.5q17 0 40 -2t62 -2q30 0 58 2t42 2t19 -3.5t5 -10.5q0 -16 -22 -16q-29 0 -42.5 -8.5t-13.5 -43.5v-234q0 -62 30.5 -86t93.5 -24q34 0 60.5 8t44.5 26.5t27.5 50t9.5 77.5v181zM216 514q81 82 123 129t63 47
q17 0 30 -11.5t13 -29.5q0 -13 -14 -25.5t-39 -28l-58.5 -35t-71.5 -46.5h-46z" />
    <glyph glyph-name="ucircumflex" unicode="&#xfb;" horiz-adv-x="611" 
d="M470 363q0 30 -9 40.5t-27 12.5q-14 2 -25 3t-11 12q0 15 20 15q17 0 32.5 -2t36.5 -2q25 0 39.5 2t29.5 2q16 0 16 -14q0 -9 -7 -12.5t-25 -3.5q-11 0 -22.5 -7t-11.5 -32v-203q0 -53 -14 -89.5t-39 -59t-59.5 -32t-75.5 -9.5q-103 0 -158.5 30t-55.5 90v280
q0 20 -10.5 25t-23.5 7t-23.5 2.5t-10.5 9.5q0 11 5 14.5t15 3.5q17 0 40 -2t62 -2q30 0 58 2t42 2t19 -3.5t5 -10.5q0 -16 -22 -16q-29 0 -42.5 -8.5t-13.5 -43.5v-234q0 -62 30.5 -86t93.5 -24q34 0 60.5 8t44.5 26.5t27.5 50t9.5 77.5v181zM257 683h70l123 -169h-42
l-116 103l-116 -103h-42z" />
    <glyph glyph-name="udieresis" unicode="&#xfc;" horiz-adv-x="611" 
d="M470 363q0 30 -9 40.5t-27 12.5q-14 2 -25 3t-11 12q0 15 20 15q17 0 32.5 -2t36.5 -2q25 0 39.5 2t29.5 2q16 0 16 -14q0 -9 -7 -12.5t-25 -3.5q-11 0 -22.5 -7t-11.5 -32v-203q0 -53 -14 -89.5t-39 -59t-59.5 -32t-75.5 -9.5q-103 0 -158.5 30t-55.5 90v280
q0 20 -10.5 25t-23.5 7t-23.5 2.5t-10.5 9.5q0 11 5 14.5t15 3.5q17 0 40 -2t62 -2q30 0 58 2t42 2t19 -3.5t5 -10.5q0 -16 -22 -16q-29 0 -42.5 -8.5t-13.5 -43.5v-234q0 -62 30.5 -86t93.5 -24q34 0 60.5 8t44.5 26.5t27.5 50t9.5 77.5v181zM190 634q21 0 37 -16t16 -37
t-16 -37t-37 -16q-20 0 -36 16.5t-16 36.5t16 36.5t36 16.5zM394 634q21 0 37 -16t16 -37t-16 -37t-37 -16t-37 16t-16 37t16 37t37 16z" />
    <glyph glyph-name="yacute" unicode="&#xfd;" horiz-adv-x="556" 
d="M326 67q0 -31 8 -38t32 -7q15 0 27.5 -1.5t12.5 -12.5q0 -7 -5.5 -9.5t-21.5 -2.5q-20 0 -47 2t-55 2t-55 -2t-47 -2q-16 0 -21.5 2.5t-5.5 9.5q0 11 12.5 12.5t27.5 1.5q24 0 31 7t7 38v86q0 15 -5.5 29t-12.5 24l-134 192q-11 15 -21.5 19t-19 4.5t-14 1.5t-5.5 10
q0 13 26 13q17 0 41 -2t50 -2t51.5 2t48.5 2q11 0 16 -3t5 -12q0 -6 -9 -8.5t-20 -3.5t-20 -2.5t-9 -6.5q0 -11 8.5 -24t19.5 -28l63 -87q7 -10 11.5 -17.5t11.5 -7.5q8 0 14 7.5t14 18.5l41 53q23 29 37 49t14 29q0 10 -8.5 12.5t-19 3.5t-19.5 3t-9 10t5 11t11 3
q17 0 35 -2t35 -2t35 2t35 2q14 0 14 -13q0 -6 -5 -8.5t-12.5 -4t-16 -3.5t-14.5 -9l-146 -167q-13 -14 -17.5 -30.5t-4.5 -46.5v-97zM202 514q81 82 123 129t63 47q17 0 30 -11.5t13 -29.5q0 -13 -14 -25.5t-39 -28l-58.5 -35t-71.5 -46.5h-46z" />
    <glyph glyph-name="thorn" unicode="&#xfe;" 
d="M90 390q0 18 -9.5 21t-21.5 5q-11 2 -21 2.5t-10 11.5q0 16 22 16q23 0 46.5 -2t46.5 -2t46.5 2t46.5 2q16 0 16 -14q0 -11 -9.5 -12.5l-21.5 -3.5q-11 -2 -21 -5t-10 -21v-29l49 2t49 1q72 0 118 -35.5t46 -99.5q0 -27 -12.5 -52t-33.5 -44t-49 -30t-59 -11
q-24 0 -39.5 3t-27 7l-20.5 7t-21 3v-58q0 -17 10.5 -21.5t23.5 -6.5t23.5 -4t10.5 -12q0 -8 -3.5 -11t-8.5 -3q-26 0 -52 2t-52 2t-52 -2t-52 -2q-9 0 -14.5 3.5t-5.5 7.5q0 11 11 14t25 5t25 8t11 20v336zM190 149q0 -10 13 -13.5t36 -3.5q45 0 74 22.5t29 68.5
q0 60 -25 85.5t-69 25.5q-24 0 -41 -4.5t-17 -15.5v-165z" />
    <glyph glyph-name="ydieresis" unicode="&#xff;" horiz-adv-x="556" 
d="M326 67q0 -31 8 -38t32 -7q15 0 27.5 -1.5t12.5 -12.5q0 -7 -5.5 -9.5t-21.5 -2.5q-20 0 -47 2t-55 2t-55 -2t-47 -2q-16 0 -21.5 2.5t-5.5 9.5q0 11 12.5 12.5t27.5 1.5q24 0 31 7t7 38v86q0 15 -5.5 29t-12.5 24l-134 192q-11 15 -21.5 19t-19 4.5t-14 1.5t-5.5 10
q0 13 26 13q17 0 41 -2t50 -2t51.5 2t48.5 2q11 0 16 -3t5 -12q0 -6 -9 -8.5t-20 -3.5t-20 -2.5t-9 -6.5q0 -11 8.5 -24t19.5 -28l63 -87q7 -10 11.5 -17.5t11.5 -7.5q8 0 14 7.5t14 18.5l41 53q23 29 37 49t14 29q0 10 -8.5 12.5t-19 3.5t-19.5 3t-9 10t5 11t11 3
q17 0 35 -2t35 -2t35 2t35 2q14 0 14 -13q0 -6 -5 -8.5t-12.5 -4t-16 -3.5t-14.5 -9l-146 -167q-13 -14 -17.5 -30.5t-4.5 -46.5v-97zM176 634q21 0 37 -16t16 -37t-16 -37t-37 -16q-20 0 -36 16.5t-16 36.5t16 36.5t36 16.5zM380 634q21 0 37 -16t16 -37t-16 -37t-37 -16
t-37 16t-16 37t16 37t37 16z" />
    <glyph glyph-name="dotlessi" unicode="&#x131;" horiz-adv-x="278" 
d="M90 390q0 18 -9.5 21t-21.5 5q-11 2 -21 2.5t-10 11.5q0 16 22 16q23 0 46.5 -2t46.5 -2t46.5 2t46.5 2q16 0 16 -14q0 -11 -9.5 -12.5l-21.5 -3.5q-11 -2 -21 -5t-10 -21v-336q0 -17 10.5 -21.5t23.5 -6.5t23.5 -4t10.5 -12q0 -8 -3.5 -11t-8.5 -3q-26 0 -52 2t-52 2
t-52 -2t-52 -2q-9 0 -14.5 3.5t-5.5 7.5q0 11 11 14t25 5t25 8t11 20v336z" />
    <glyph glyph-name="Lslash" unicode="&#x141;" horiz-adv-x="556" 
d="M114 541q0 3 -3 9t-9 11.5t-16 10t-25 4.5q-26 0 -33 6t-7 14q0 16 18 16q33 0 66 -2t66 -2t66 2t66 2q16 0 22 -3t6 -16q0 -5 -5 -10t-17 -7q-38 -5 -57.5 -11t-19.5 -26v-178l130 33v-43l-130 -33v-226q0 -38 5.5 -47t22.5 -9h70q57 0 91.5 17t55 37.5t31 37.5t19.5 17
q5 0 9.5 -4t4.5 -18q0 -13 -3 -34.5t-8 -42t-11.5 -35.5t-13.5 -15q-29 0 -68 0.5t-79 1.5t-77 1.5t-64 0.5q-34 0 -78.5 -2t-86.5 -2q-20 0 -28 2t-8 15q0 12 19.5 15t44.5 8q12 2 18.5 5.5t10 15t4.5 35t1 64.5v132l-100 -26v43l100 26v210z" />
    <glyph glyph-name="lslash" unicode="&#x142;" horiz-adv-x="444" 
d="M106 198l-84 -22v33l84 22v161q0 14 -10.5 18t-24.5 6q-13 2 -24 3.5t-11 10.5q0 16 22 16q27 0 51.5 -2t54.5 -2q29 0 56 2t54 2q14 0 14 -14q0 -12 -12.5 -13t-28.5 -3q-15 -2 -28 -11t-13 -43v-106l116 30v-33l-116 -30v-165q0 -26 46 -26q44 0 72.5 13.5t47.5 29.5
t29.5 29.5t17.5 13.5q9 0 9 -13q0 -6 -3.5 -23t-8.5 -35.5t-10.5 -33.5t-9.5 -18q-6 1 -26 1.5t-47 1.5t-57 1.5t-56 0.5q-32 0 -56 -0.5t-43 -1.5t-34 -1.5t-29 -0.5q-13 0 -17.5 2t-4.5 10q0 14 12.5 15t27.5 3t27.5 9.5t12.5 30.5v132z" />
    <glyph glyph-name="OE" unicode="&#x152;" horiz-adv-x="889" 
d="M580 366q0 -20 7.5 -26t28.5 -6q26 0 46.5 1t36.5 5.5t28 15t21 28.5q9 19 14 28.5t15 9.5q8 0 10.5 -6t2.5 -20q0 -17 -2.5 -45.5t-2.5 -50.5v-76q0 -8 -2 -18t-14 -10q-7 0 -9.5 4.5t-8.5 25.5l-8 27q-4 16 -19 25t-33.5 14t-36 6.5t-28.5 1.5q-31 0 -38.5 -7.5
t-7.5 -37.5v-166q0 -11 2 -21t11 -17t28.5 -11t53.5 -4q58 0 87.5 18.5t44.5 40t23.5 40t24.5 18.5q5 0 8.5 -5t3.5 -13q0 -4 -3 -18t-7 -31l-8.5 -35t-7.5 -32q-5 -23 -18 -23q-9 0 -18.5 0.5t-18.5 1.5t-18 1.5t-19 0.5h-254q-35 0 -61 -0.5t-47 -1.5t-39 -1.5t-36 -0.5
q-57 0 -110.5 19t-95.5 56.5t-67 93.5t-25 130q0 69 24.5 127t68 100t102 66t125.5 24q31 0 55.5 -0.5t44.5 -1.5t36 -1.5t28 -0.5h309q26 0 31.5 -5t5.5 -16q0 -41 -0.5 -65.5t-2 -37t-5 -16t-8.5 -3.5t-10 7.5t-10 25.5q-4 15 -14.5 28.5t-31 23.5t-53 16t-81.5 6
q-34 0 -41 -9.5t-7 -36.5v-160zM454 525q0 28 -16 41.5t-64 13.5q-44 0 -85.5 -14.5t-73 -47t-50.5 -83.5t-19 -123q0 -140 53.5 -212t155.5 -72q33 0 53 4t30 13.5t13 26.5t3 42v411z" />
    <glyph glyph-name="oe" unicode="&#x153;" horiz-adv-x="722" 
d="M360 360q0 35 -16 47.5t-46 12.5q-32 0 -60.5 -12t-49.5 -35.5t-33.5 -58t-12.5 -80.5q0 -55 12 -94t32 -64.5t46.5 -37.5t55.5 -12t50.5 15t21.5 57v262zM466 278q0 -16 12.5 -22t55.5 -6q23 0 35 9t19.5 19.5t12.5 19t15 8.5q5 0 7.5 -4t2.5 -9t-4 -31.5t-4 -81.5
q0 -9 1 -15t1 -10q0 -7 -3.5 -9t-7.5 -2q-14 0 -15 11.5t-6 26.5q-5 14 -18 26t-36 12q-42 0 -55 -4.5t-13 -21.5v-126q0 -23 12 -32.5t44 -9.5q40 0 64 13.5t39 29.5t23 29.5t17 13.5q5 0 8 -3.5t3 -6.5q0 -9 -4.5 -24.5l-11.5 -40.5l-8.5 -29t-14.5 -12q-45 0 -86.5 2
t-78.5 2q-41 0 -87.5 -2t-100.5 -2q-43 0 -88 13t-81.5 40t-59.5 70t-23 103t23.5 103t61 71t85 41t96.5 13q23 0 43 -1t40 -3t41.5 -3t47.5 -1q35 0 63.5 0.5t49.5 1.5q22 1 36.5 1.5t22.5 0.5q9 0 12.5 -12.5t3.5 -54.5q0 -26 -2 -34.5t-9 -8.5q-10 0 -14 12.5t-15 27.5
t-35 27.5t-74 12.5q-23 0 -33 -4.5t-10 -15.5v-118z" />
    <glyph glyph-name="Scaron" unicode="&#x160;" 
d="M412 487q0 -16 -13 -16q-9 0 -15.5 18.5t-19.5 41t-37.5 41t-69.5 18.5q-34 0 -56 -10t-35.5 -25t-19 -33.5t-5.5 -35.5q0 -28 23.5 -46.5t58.5 -35.5t76.5 -34.5t76.5 -42.5t58.5 -61.5t23.5 -90.5q0 -27 -8.5 -60.5t-32.5 -63t-68 -49.5t-116 -20q-33 0 -66 4t-60 12
t-44 20t-17 28q0 17 0.5 38.5t3 41t7 33t13.5 13.5t12.5 -8t7 -21t9.5 -29.5t19 -32.5q18 -23 56.5 -43t84.5 -20q32 0 54.5 9t37.5 23t22 33t7 38q0 38 -23 63.5t-57.5 45.5t-75 38t-75 43t-57.5 59.5t-23 86.5q0 77 51 123t157 46q27 0 51.5 -2.5t43 -8t29.5 -13t11 -17.5
v-98zM285 654h-70l-123 169h42l116 -103l116 103h42z" />
    <glyph glyph-name="scaron" unicode="&#x161;" horiz-adv-x="389" 
d="M32 28q0 54 4.5 77t14.5 23q6 0 11 -18t18 -39t38 -39t69 -18q49 0 75 20t26 56q0 22 -17.5 36t-43.5 26t-57 24.5t-57 32t-43.5 48t-17.5 71.5q0 29 12 52.5t33 41t50.5 27t64.5 9.5q56 0 80.5 -10t28.5 -22q14 -44 8 -68t-16 -24q-11 0 -17.5 14.5t-16 32.5t-26 32.5
t-47.5 14.5q-45 0 -68.5 -20.5t-23.5 -46.5t18 -41.5t45 -27t58 -23t58 -29.5t45 -45t18 -71q0 -69 -42 -104.5t-134 -35.5q-66 0 -107 13.5t-41 30.5zM230 514h-70l-123 169h42l116 -103l116 103h42z" />
    <glyph glyph-name="Ydieresis" unicode="&#x178;" horiz-adv-x="722" 
d="M288 211q0 32 -11 57.5t-34 58.5l-71 104q-32 47 -53 75t-35 43t-22.5 20t-16.5 7l-25.5 7t-10.5 13q0 11 6.5 13.5t30.5 2.5q9 0 23.5 -0.5t32 -1.5t35.5 -1.5t34 -0.5q18 0 38 0.5t37 1.5t28.5 1.5t14.5 0.5q11 0 14.5 -4.5t3.5 -10.5q0 -14 -9 -17.5t-28 -3.5
q-16 0 -26.5 -1.5t-10.5 -10.5q0 -11 5 -21t13 -22l109 -164l14.5 -18.5t16.5 -10.5q7 0 12.5 5.5t9.5 10.5l132 186q12 16 12 31q0 8 -5.5 10.5t-27.5 4.5q-29 2 -38 7t-9 13q0 7 6.5 11.5t38.5 4.5q24 0 47.5 -2t47.5 -2q17 0 33.5 2t33.5 2q16 0 16 -16q0 -9 -7.5 -12
t-30.5 -8q-6 -1 -20.5 -13.5t-29.5 -27l-27 -27t-14 -15.5l-124 -153q-15 -18 -23 -31t-12 -27t-5 -33t-1 -51v-73q0 -27 2 -45t9.5 -28.5t23.5 -15t43 -4.5q11 0 18 -4t7 -19q0 -10 -14.5 -11.5t-25.5 -1.5q-34 0 -68.5 2t-66.5 2t-66.5 -2t-70.5 -2q-6 0 -7.5 4.5
t-1.5 9.5q0 10 15.5 15.5t31.5 6.5q14 1 23.5 4t16.5 12t10 24.5t3 41.5v97zM259 774q21 0 37 -16t16 -37t-16 -37t-37 -16q-20 0 -36 16.5t-16 36.5t16 36.5t36 16.5zM463 774q21 0 37 -16t16 -37t-16 -37t-37 -16t-37 16t-16 37t16 37t37 16z" />
    <glyph glyph-name="Zcaron" unicode="&#x17d;" horiz-adv-x="667" 
d="M259 135q-13 -17 -26.5 -37.5t-13.5 -34.5q0 -9 4.5 -14.5t25 -8.5t62 -3.5t116.5 -0.5q55 0 87 11t49 26.5t23.5 33.5t10.5 33q4 14 7 22.5t13 8.5q6 0 8 -3t2 -13l1 -113q0 -15 -1 -24t-6 -14t-15 -6.5t-28 -1.5q-22 0 -44 0.5t-46 1.5q-23 1 -49.5 1.5t-56.5 0.5h-303
q-13 0 -21 -1t-16 -1q-11 0 -13.5 3t-2.5 9q0 7 3.5 11.5t6.5 9.5l400 518q5 5 7.5 8.5t2.5 8.5q0 3 -1 4.5t-6.5 3t-17 2t-31.5 0.5q-29 0 -68 -1t-77.5 -4.5t-70.5 -10.5t-46 -18q-13 -10 -22 -22.5t-16 -24t-14 -19t-16 -7.5q-12 0 -14.5 4t-2.5 11t9.5 31.5t19.5 55.5
q11 35 19.5 59t19.5 24q13 0 13 -7t1 -16t8.5 -16t35.5 -7q30 0 79 0.5t108 1.5q60 1 123 1.5t122 0.5q8 0 12 -6t4 -11q0 -2 -4.5 -8l-11 -14l-13.5 -16.5t-13 -16.5zM369 654h-70l-123 169h42l116 -103l116 103h42z" />
    <glyph glyph-name="zcaron" unicode="&#x17e;" 
d="M200 86q-6 -8 -9 -14.5t-3 -16.5q0 -7 3 -12t13.5 -8t31.5 -4t56 -1q51 0 79.5 5t43.5 17q11 9 15.5 21.5t7 24t5 20t9.5 8.5q10 0 16 -10.5t6 -48.5q0 -24 -1 -37t-3.5 -20t-7 -8.5t-12.5 -1.5h-316q-11 0 -22 -0.5t-22 -1.5t-22 -1.5t-22 -0.5t-14.5 3.5t-3.5 9.5
q0 5 2.5 12.5t10.5 18.5l246 321q11 14 18 24t7 14q0 7 -13 7h-102q-30 0 -50.5 -5.5t-34.5 -14t-22.5 -18.5t-13.5 -19q-5 -8 -9 -13.5t-12 -5.5q-13 0 -13 9q0 6 2 13l5 18l27 87q3 15 16 15t14 -15q2 -15 11 -15h319q13 0 17.5 -4t4.5 -10q0 -7 -4.5 -13.5t-12.5 -16.5z
M275 514h-70l-123 169h42l116 -103l116 103h42z" />
    <glyph glyph-name="florin" unicode="&#x192;" 
d="M102 370l4 32h112q4 37 15 82.5t32 86t54 68t81 27.5q10 0 24.5 -2.5t28 -10t23.5 -21.5t10 -37q0 -27 -14.5 -36t-29.5 -9q-18 0 -29 11t-11 25q0 12 3 19t6.5 11.5t6.5 7.5t3 7q0 2 -5 5.5t-14 3.5q-27 0 -45.5 -17.5t-30 -49t-18 -75.5t-10.5 -96h119v-32h-123
q-4 -25 -8.5 -73.5t-12.5 -106.5t-21.5 -119t-34.5 -110.5t-51.5 -81.5t-73.5 -32q-38 0 -60 16t-22 48q0 22 10.5 34.5t32.5 12.5q39 0 39 -36q0 -15 -8.5 -24t-8.5 -17q0 -6 5 -7t11 -1q28 0 43.5 20t24 50.5t12.5 66.5t8 68l32 292h-109z" />
    <glyph glyph-name="circumflex" unicode="&#x2c6;" horiz-adv-x="278" 
d="M104 683h70l123 -169h-42l-116 103l-116 -103h-42z" />
    <glyph glyph-name="caron" unicode="&#x2c7;" horiz-adv-x="278" 
d="M174 514h-70l-123 169h42l116 -103l116 103h42z" />
    <glyph glyph-name="breve" unicode="&#x2d8;" horiz-adv-x="278" 
d="M284 671q-4 -37 -14 -66t-27.5 -49.5t-44 -31t-65.5 -10.5q-40 0 -67 14.5t-43 37t-23 50.5t-7 55h36q1 -26 13 -46q10 -19 32 -32.5t64 -13.5q41 0 62.5 14.5t31 31.5t12 31.5t3.5 14.5h37z" />
    <glyph glyph-name="dotaccent" unicode="&#x2d9;" horiz-adv-x="278" 
d="M139 634q21 0 37 -16t16 -37t-16 -37t-37 -16t-37 16t-16 37t16 37t37 16z" />
    <glyph glyph-name="ring" unicode="&#x2da;" horiz-adv-x="278" 
d="M139 715q20 0 38.5 -8.5t32.5 -22.5t22.5 -32.5t8.5 -38.5t-8.5 -38.5t-22.5 -32.5t-32.5 -22.5t-38.5 -8.5t-38.5 8.5t-32.5 22.5t-22.5 32.5t-8.5 38.5t8.5 38.5t22.5 32.5t32.5 22.5t38.5 8.5zM139 675q-24 0 -43 -19t-19 -43t19 -43t43 -19t43 19t19 43t-19 43
t-43 19z" />
    <glyph glyph-name="ogonek" unicode="&#x2db;" horiz-adv-x="278" 
d="M258 9q-20 -6 -46 -17t-49.5 -27t-39.5 -35.5t-16 -42.5t14.5 -37t37.5 -14q28 0 53 12t48 28l17 -32q-35 -23 -72 -40.5t-79 -17.5q-40 0 -68.5 24t-28.5 63q0 36 26.5 61.5t63.5 42.5t75.5 27t63.5 14v-9z" />
    <glyph glyph-name="tilde" unicode="&#x2dc;" horiz-adv-x="278" 
d="M310 651l-9 -29t-18 -37.5t-32.5 -32t-53.5 -13.5q-20 0 -39.5 7.5t-38.5 16.5l-34 16.5t-29 7.5q-19 0 -29.5 -7.5t-15.5 -17t-6.5 -17t-3.5 -7.5h-32q8 45 35.5 77.5t75.5 32.5q20 0 38.5 -7.5l36.5 -15.5q19 -9 37 -16.5t35 -7.5q15 0 24 8t14.5 17t7.5 17t4 8h33z
" />
    <glyph glyph-name="hungarumlaut" unicode="&#x2dd;" horiz-adv-x="278" 
d="M174 514q81 82 123 129t63 47q17 0 30 -11t13 -30q0 -13 -14 -25.5t-39 -28l-58.5 -35t-71.5 -46.5h-46zM19 514q30 33 55.5 64.5l47 56.5t38.5 40t30 15q27 0 35 -11.5t8 -31.5q0 -11 -17 -26t-42.5 -32.5l-55 -36.5t-54.5 -38h-45z" />
    <glyph glyph-name="endash" unicode="&#x2013;" 
d="M500 161h-500v60h500v-60z" />
    <glyph glyph-name="emdash" unicode="&#x2014;" horiz-adv-x="1000" 
d="M875 161h-750v60h750v-60z" />
    <glyph glyph-name="quoteleft" unicode="&#x2018;" horiz-adv-x="222" 
d="M114 410q-25 0 -46.5 20.5t-21.5 57.5q0 35 17 61t38.5 43t40.5 25.5t23 8.5q11 0 11 -9q0 -5 -10.5 -11.5t-22.5 -16t-22.5 -23.5t-10.5 -33q0 -14 9 -21.5t19.5 -14t19 -14.5t8.5 -24q0 -23 -14.5 -36t-37.5 -13z" />
    <glyph glyph-name="quoteright" unicode="&#x2019;" horiz-adv-x="222" 
d="M108 630q25 0 46.5 -20.5t21.5 -57.5q0 -35 -17 -61t-38.5 -43t-40.5 -25.5t-23 -8.5q-11 0 -11 9q0 5 10.5 11.5t22.5 16.5t22.5 23.5t10.5 32.5q0 14 -8.5 21.5t-19 14t-19.5 14.5t-9 24q0 23 14.5 36t37.5 13z" />
    <glyph glyph-name="quotesinglbase" unicode="&#x201a;" horiz-adv-x="222" 
d="M108 112q25 0 46.5 -20.5t21.5 -57.5q0 -35 -17 -61t-38.5 -43t-40.5 -25.5t-23 -8.5q-11 0 -11 9q0 5 10.5 11.5t22.5 16t22.5 23.5t10.5 33q0 14 -8.5 21.5t-19 14t-19.5 14.5t-9 24q0 23 14.5 36t37.5 13z" />
    <glyph glyph-name="quotedblleft" unicode="&#x201c;" horiz-adv-x="444" 
d="M151 410q-25 0 -46.5 20.5t-21.5 57.5q0 35 17 61t38.5 43t40.5 25.5t23 8.5q11 0 11 -9q0 -5 -10.5 -11.5t-22.5 -16t-22.5 -23.5t-10.5 -33q0 -14 9 -21.5t19.5 -14t19 -14.5t8.5 -24q0 -23 -14.5 -36t-37.5 -13zM336 410q-25 0 -46.5 20.5t-21.5 57.5q0 35 17 61
t38.5 43t40.5 25.5t23 8.5q11 0 11 -9q0 -5 -10.5 -11.5t-22.5 -16t-22.5 -23.5t-10.5 -33q0 -14 9 -21.5t19.5 -14t19 -14.5t8.5 -24q0 -23 -14.5 -36t-37.5 -13z" />
    <glyph glyph-name="quotedblright" unicode="&#x201d;" horiz-adv-x="444" 
d="M293 626q25 0 46.5 -20.5t21.5 -57.5q0 -35 -17 -61t-38.5 -43t-40.5 -25.5t-23 -8.5q-11 0 -11 9q0 5 10.5 11.5t22.5 16.5t22.5 23.5t10.5 32.5q0 14 -8.5 21.5t-19 14t-19.5 14.5t-9 24q0 23 14.5 36t37.5 13zM108 626q25 0 46.5 -20.5t21.5 -57.5q0 -35 -17 -61
t-38.5 -43t-40.5 -25.5t-23 -8.5q-11 0 -11 9q0 5 10.5 11.5t22.5 16.5t22.5 23.5t10.5 32.5q0 14 -8.5 21.5t-19 14t-19.5 14.5t-9 24q0 23 14.5 36t37.5 13z" />
    <glyph glyph-name="quotedblbase" unicode="&#x201e;" horiz-adv-x="444" 
d="M293 112q25 0 46.5 -20.5t21.5 -57.5q0 -35 -17 -61t-38.5 -43t-40.5 -25.5t-23 -8.5q-11 0 -11 9q0 5 10.5 11.5t22.5 16t22.5 23.5t10.5 33q0 14 -8.5 21.5t-19 14t-19.5 14.5t-9 24q0 23 14.5 36t37.5 13zM108 112q25 0 46.5 -20.5t21.5 -57.5q0 -35 -17 -61
t-38.5 -43t-40.5 -25.5t-23 -8.5q-11 0 -11 9q0 5 10.5 11.5t22.5 16t22.5 23.5t10.5 33q0 14 -8.5 21.5t-19 14t-19.5 14.5t-9 24q0 23 14.5 36t37.5 13z" />
    <glyph glyph-name="dagger" unicode="&#x2020;" 
d="M239 -200l-5 146q-2 77 -15.5 136.5t-35.5 122.5l24.5 42t17 36.5t9.5 41t3 54.5q-34 -2 -53.5 -9t-33 -14.5l-25 -13.5t-29.5 -6q-6 0 -14.5 2.5t-16.5 8.5t-13.5 16.5t-5.5 26.5q0 17 5.5 27.5t13.5 16.5t16.5 8t14.5 2q18 0 29.5 -6l25 -13.5t33 -14.5t53.5 -9v20
q0 29 -7 49.5t-15 36.5l-15 30t-7 29q0 32 15.5 46t41.5 14t41.5 -14t15.5 -46q0 -15 -7 -29l-15 -30t-15 -36.5t-7 -49.5v-19q35 2 54 9t33 15t25 13.5t29 5.5q6 0 14.5 -2t16.5 -8t13.5 -16.5t5.5 -27.5q0 -16 -5.5 -26.5t-13.5 -16.5t-16.5 -8.5t-14.5 -2.5
q-18 0 -29.5 6l-25 13.5t-33 14.5t-53.5 9q0 -33 3 -55.5t9.5 -41t17 -36.5l24.5 -42q-22 -63 -35.5 -122.5t-15.5 -136.5l-5 -146h-22z" />
    <glyph glyph-name="daggerdbl" unicode="&#x2021;" 
d="M237 421q0 29 -7 49.5t-15 36.5l-15 30t-7 29q0 32 15.5 46t41.5 14t41.5 -14t15.5 -46q0 -15 -7 -29l-15 -30t-15 -36.5t-7 -49.5v-19q35 2 54 9t33 15t25 13.5t29 5.5q6 0 14.5 -2t16.5 -8t13.5 -16.5t5.5 -27.5q0 -16 -5.5 -26.5t-13.5 -16.5t-16.5 -8.5t-14.5 -2.5
q-18 0 -29.5 6l-25 13.5t-33 14.5t-53.5 9q2 -60 20 -100t35 -67q-17 -27 -35 -67t-20 -100q34 2 53.5 9t33 14.5l25 13.5t29.5 6q6 0 14.5 -2t16.5 -8t13.5 -16.5t5.5 -27.5q0 -16 -5.5 -27t-13.5 -17t-16.5 -8t-14.5 -2q-18 0 -29.5 6l-25 13.5t-33 14.5t-53.5 9v-19
q0 -29 7 -49.5t15 -36.5l15 -30t7 -29q0 -32 -15.5 -46t-41.5 -14t-41.5 14t-15.5 46q0 15 7 29l15 30t15 36.5t7 49.5v20q-34 -2 -53.5 -9t-33 -14.5l-25 -13.5t-29.5 -6q-6 0 -14.5 2t-16.5 8t-13.5 17t-5.5 27q0 17 5.5 27.5t13.5 16.5t16.5 8t14.5 2q18 0 29.5 -6
l25 -13.5t33 -14.5t53.5 -9q-2 60 -20 100t-35 67q17 27 35 67t20 100q-34 -3 -53.5 -10.5t-33 -15l-25 -13.5t-29.5 -6q-6 0 -14.5 2.5t-16.5 8.5t-13.5 16.5t-5.5 26.5q0 17 5.5 27.5t13.5 16.5t16.5 8t14.5 2q18 0 29.5 -6l25 -13.5t33 -14.5t53.5 -9v20z" />
    <glyph glyph-name="bullet" unicode="&#x2022;" 
d="M402 304q0 -31 -12 -59t-32.5 -48.5t-48 -32.5t-59.5 -12q-31 0 -59 12t-48.5 32.5t-32.5 48t-12 59.5t11.5 59.5t32 48t48.5 32.5t60 12t59.5 -12t48 -32.5t32.5 -48t12 -59.5z" />
    <glyph glyph-name="ellipsis" unicode="&#x2026;" horiz-adv-x="1000" 
d="M167 112q25 0 44 -19.5t19 -44.5q0 -24 -19.5 -41t-43.5 -17t-43.5 17t-19.5 41q0 25 19 44.5t44 19.5zM500 112q25 0 44 -19.5t19 -44.5q0 -24 -19.5 -41t-43.5 -17t-43.5 17t-19.5 41q0 25 19 44.5t44 19.5zM833 112q25 0 44 -19.5t19 -44.5q0 -24 -19.5 -41t-43.5 -17
t-43.5 17t-19.5 41q0 25 19 44.5t44 19.5z" />
    <glyph glyph-name="perthousand" unicode="&#x2030;" horiz-adv-x="1000" 
d="M121 332q33 0 63 20t53 51.5t37 69t14 73.5q0 12 -3 18t-8 10t-11.5 7.5t-13.5 8.5q-8 6 -13 13t-15 7q-16 0 -43 -20t-52.5 -51t-44 -68.5t-18.5 -72.5q0 -20 6 -33t14 -20.5t18 -10t17 -2.5zM68 -34h-53l485 605l-2 2q-5 -3 -32 -14.5t-82 -11.5q-29 0 -46 3t-27 9
q1 -4 1 -14q0 -42 -16.5 -84.5t-43.5 -76t-61 -55t-69 -21.5q-21 0 -41.5 7t-36.5 21.5t-26 37.5t-10 55q0 47 19.5 86t48.5 67.5t64.5 44t66.5 15.5q32 0 57.5 -13.5t37.5 -39.5q15 -8 38.5 -13t40.5 -5q42 0 73 9t53.5 22.5t37 29t23.5 28.5h50zM523 313q43 0 74 -24
t31 -71q0 -42 -16.5 -84.5t-43.5 -76.5t-61 -55.5t-69 -21.5q-21 0 -41.5 7t-36.5 22t-26 38t-10 55q0 47 19.5 86t48.5 66.5t64.5 43t66.5 15.5zM536 281q-30 0 -57.5 -26.5t-49 -62t-34.5 -71t-13 -53.5q0 -35 18 -49.5t47 -14.5q27 0 55 20.5t50.5 52t37 68.5t14.5 70
q0 10 -2.5 21.5t-10 21.5t-20.5 16.5t-35 6.5zM884 313q43 0 74 -24t31 -71q0 -42 -16.5 -84.5t-43.5 -76.5t-61 -55.5t-69 -21.5q-21 0 -41.5 7t-36.5 22t-26 38t-10 55q0 47 19.5 86t48.5 66.5t64.5 43t66.5 15.5zM897 281q-30 0 -57.5 -26.5t-49 -62t-34.5 -71t-13 -53.5
q0 -35 18 -49.5t47 -14.5q27 0 55 20.5t50.5 52t37 68.5t14.5 70q0 10 -2.5 21.5t-10 21.5t-20.5 16.5t-35 6.5z" />
    <glyph glyph-name="guilsinglleft" unicode="&#x2039;" horiz-adv-x="333" 
d="M152 262q32 27 49.5 43.5l27 25t13.5 11.5t8 3q5 0 7 -3t2 -6q0 -6 -15 -29l-33 -48.5l-33 -46t-15 -21.5t15.5 -21.5l34 -45.5t34 -48.5t15.5 -30.5t-9 -7q-6 0 -25 19t-41 37l-113 95v7z" />
    <glyph glyph-name="guilsinglright" unicode="&#x203a;" horiz-adv-x="333" 
d="M146 94q-22 -18 -41 -37t-25 -19q-9 0 -9 7t15.5 30.5t34 48.5l34 45.5t15.5 21.5t-15 21.5l-33 46l-33 48.5t-15 29q0 3 2 6t7 3q4 0 8 -3t13.5 -11.5l27 -25t49.5 -43.5l78 -66v-7z" />
    <glyph glyph-name="fraction" unicode="&#x2044;" horiz-adv-x="167" 
d="M334 612l-450 -630h-51l450 630h51z" />
    <glyph glyph-name="trademark" unicode="&#x2122;" horiz-adv-x="990" 
d="M241 268q0 -13 1 -21t5.5 -12.5t15 -6.5t28.5 -4v-20h-166v20q18 2 28.5 4t15 6.5t5.5 12.5t1 21v320h-51q-32 0 -46.5 -20t-20.5 -48h-20v88h342v-88h-20q-6 28 -21 48t-46 20h-51v-320zM520 512h-2v-224q0 -32 10 -46t42 -18v-20h-133v20q33 4 43 18t10 46v251
q-7 23 -26 36t-40 13v20h118l154 -309l160 309h102v-20q-32 -2 -43 -16t-11 -40v-264q0 -13 0.5 -21t4.5 -12.5t14 -6.5t28 -4v-20h-163v20q18 2 28.5 4t15 6.5t5.5 12.5t1 21v247h-2l-155 -314h-9z" />
    <glyph glyph-name="minus" unicode="&#x2212;" horiz-adv-x="600" 
d="M109 163v56h382v-56h-382z" />
    <glyph glyph-name="fi" unicode="&#xfb01;" horiz-adv-x="722" 
d="M104 394q0 15 -10.5 18.5t-22.5 4t-22.5 2t-10.5 12.5q0 10 8 12.5t28 2.5q32 0 70.5 -2t77.5 -2q42 0 82.5 0.5t81.5 3.5q10 1 15 -8t5 -50q0 -21 -0.5 -32.5t-2 -17t-4 -7t-6.5 -1.5q-10 0 -14.5 13.5t-16 29.5t-37 29.5t-77.5 13.5q-23 0 -30.5 -6.5t-7.5 -23.5v-123
q0 -8 5 -12t9 -5h28q22 0 35.5 9t23 19.5t16.5 19t14 8.5q4 0 6.5 -3t2.5 -13q0 -19 -2.5 -34.5t-3.5 -35.5q-2 -30 0 -44t2 -19q0 -13 -12 -13q-7 0 -12 12t-12.5 26t-22 26t-41.5 12h-22q-4 0 -9 -4t-5 -14v-132q0 -21 13.5 -29t30.5 -11t30.5 -4.5t13.5 -12.5
q0 -2 -2 -7.5t-10 -5.5q-20 0 -46 2t-71 2q-29 0 -58.5 -2t-58.5 -2q-9 0 -15.5 2t-6.5 10q0 13 11.5 14.5l25.5 3.5t25.5 8t11.5 24v336zM534 390q0 18 -9.5 21t-21.5 5q-11 2 -21 2.5t-10 11.5q0 16 22 16q23 0 46.5 -2t46.5 -2t46.5 2t46.5 2q16 0 16 -14
q0 -11 -9.5 -12.5l-21.5 -3.5q-11 -2 -21 -5t-10 -21v-336q0 -17 10.5 -21.5t23.5 -6.5t23.5 -4t10.5 -12q0 -8 -3.5 -11t-8.5 -3q-26 0 -52 2t-52 2t-52 -2t-52 -2q-9 0 -14.5 3.5t-5.5 7.5q0 11 11 14t25 5t25 8t11 20v336z" />
    <glyph glyph-name="fl" unicode="&#xfb02;" horiz-adv-x="888" 
d="M104 394q0 15 -10.5 18.5t-22.5 4t-22.5 2t-10.5 12.5q0 10 8 12.5t28 2.5q32 0 70.5 -2t77.5 -2q42 0 82.5 0.5t81.5 3.5q10 1 15 -8t5 -50q0 -21 -0.5 -32.5t-2 -17t-4 -7t-6.5 -1.5q-10 0 -14.5 13.5t-16 29.5t-37 29.5t-77.5 13.5q-23 0 -30.5 -6.5t-7.5 -23.5v-123
q0 -8 5 -12t9 -5h28q22 0 35.5 9t23 19.5t16.5 19t14 8.5q4 0 6.5 -3t2.5 -13q0 -19 -2.5 -34.5t-3.5 -35.5q-2 -30 0 -44t2 -19q0 -13 -12 -13q-7 0 -12 12t-12.5 26t-22 26t-41.5 12h-22q-4 0 -9 -4t-5 -14v-132q0 -21 13.5 -29t30.5 -11t30.5 -4.5t13.5 -12.5
q0 -2 -2 -7.5t-10 -5.5q-20 0 -46 2t-71 2q-29 0 -58.5 -2t-58.5 -2q-9 0 -15.5 2t-6.5 10q0 13 11.5 14.5l25.5 3.5t25.5 8t11.5 24v336zM550 392q0 14 -10.5 18t-24.5 6q-13 2 -24 3.5t-11 10.5q0 16 22 16q27 0 51.5 -2t54.5 -2q29 0 56 2t54 2q14 0 14 -14
q0 -12 -12.5 -13t-28.5 -3q-15 -2 -28 -11t-13 -43v-304q0 -26 46 -26q44 0 72.5 13.5t47.5 29.5t29.5 29.5t17.5 13.5q9 0 9 -13q0 -6 -3.5 -23t-8.5 -35.5t-10.5 -33.5t-9.5 -18q-6 1 -26 1.5t-47 1.5t-57 1.5t-56 0.5q-32 0 -56 -0.5t-43 -1.5t-34 -1.5t-29 -0.5
q-13 0 -17.5 2t-4.5 10q0 14 12.5 15t27.5 3t27.5 9.5t12.5 30.5v326z" />
    </font>
</defs>
</svg>
